<?xml version="1.0" standalone="no"?>
<!DOCTYPE svg PUBLIC "-//W3C//DTD SVG 1.1//EN" "http://www.w3.org/Graphics/SVG/1.1/DTD/svg11.dtd" >
<svg xmlns="http://www.w3.org/2000/svg">
<metadata></metadata>
<defs>
<font id="pf_beausans_probbook" horiz-adv-x="1218" >
<font-face units-per-em="2048" ascent="1536" descent="-512" />
<missing-glyph horiz-adv-x="563" />
<glyph horiz-adv-x="0" />
<glyph horiz-adv-x="682" />
<glyph unicode=" "  horiz-adv-x="563" />
<glyph unicode="&#x09;" horiz-adv-x="563" />
<glyph unicode="&#xa0;" horiz-adv-x="563" />
<glyph unicode="!" horiz-adv-x="563" d="M131 133q0 63 44 107.5t108 44.5q66 0 108.5 -43t42.5 -109q0 -63 -43 -107t-108 -44q-66 0 -109 43t-43 108zM168 1397q-2 12 6 24.5t29 12.5h155q23 0 31 -12.5t6 -24.5l-45 -920q-2 -23 -11 -30t-38 -7h-47q-39 0 -41 31z" />
<glyph unicode="&#x22;" horiz-adv-x="759" d="M104 1403q-2 12 6.5 24.5t28.5 12.5h170q23 0 31 -12.5t6 -24.5l-53 -479q-4 -23 -12.5 -30t-36.5 -7h-47q-39 0 -41 31zM412 1403q0 12 8 24.5t29 12.5h169q23 0 31 -12.5t6 -24.5l-53 -479q-4 -23 -12 -30t-37 -7h-47q-39 0 -41 31z" />
<glyph unicode="#" d="M78 317l12 64q4 16 10 23.5t25 7.5h176l76 370h-182q-18 0 -22.5 7.5t-2.5 23.5l14 64q4 16 10.5 23t24.5 7h184l54 260q4 16 9 21.5t21 5.5h78q16 0 25.5 -5t5.5 -22l-53 -260h288l54 260q4 16 9 21.5t21 5.5h78q16 0 25.5 -5t5.5 -22l-53 -260h170q18 0 24 -7t4 -23 l-14 -64q-4 -16 -10 -23.5t-25 -7.5h-174l-78 -370h174q33 0 27 -31l-12 -64q-4 -16 -10.5 -23t-22.5 -7h-180l-53 -260q-4 -16 -9.5 -21.5t-21.5 -5.5h-80q-14 0 -23.5 5t-5.5 22l51 260h-286l-54 -260q-4 -16 -9 -21.5t-21 -5.5h-80q-16 0 -25.5 5t-5.5 22l53 260h-174 q-29 0 -22 30zM440 412h289l76 370h-287z" />
<glyph unicode="$" d="M121 129l49 121q12 25 37 14q59 -29 124.5 -48t131.5 -32v492q-143 63 -217 143t-74 207q0 135 75 230.5t216 129.5v170q0 23 9 27t28 4h30q20 0 28.5 -4t8.5 -27v-1757q0 -23 -8 -26.5t-29 -3.5h-30q-18 0 -27.5 4t-9.5 26v189q-86 10 -171 34.5t-161 65.5 q-25 10 -10 41zM373 1042q0 -90 90 -149v289q-47 -23 -68.5 -61t-21.5 -79zM639 -201v1757q0 23 9 27t28 4h31q20 0 28 -4t8 -27v-161q61 -8 125 -24.5t123 -45.5q25 -10 15 -33l-48 -129q-4 -14 -10 -16t-16 2q-104 35 -189 51v-434q66 -29 127.5 -61.5t109.5 -77.5 t76.5 -106.5t28.5 -143.5q0 -86 -25.5 -151.5t-71.5 -114t-108.5 -79t-136.5 -42.5v-191q0 -23 -8 -26.5t-28 -3.5h-31q-18 0 -27.5 4t-9.5 26zM743 182q68 23 106 70t38 115q0 66 -38 109.5t-106 80.5v-375z" />
<glyph unicode="%" horiz-adv-x="1843" d="M70 961q0 96 22.5 174.5t67.5 135t113.5 87.5t162.5 31q98 0 167 -31t113 -86t63.5 -134t19.5 -175t-21.5 -174t-66.5 -135.5t-115 -88t-164 -30.5q-186 0 -274 115.5t-88 310.5zM240 963q0 -55 9 -107.5t30.5 -93.5t59.5 -66.5t97 -25.5q55 0 93 25.5t60.5 66.5t32 93.5 t9.5 105.5q0 55 -9.5 107t-33 93t-61.5 65.5t-95 24.5q-55 0 -93 -24.5t-59.5 -65.5t-30.5 -93t-9 -105zM427.5 -38q-7.5 7 2.5 26l838 1401q10 18 18 25t27 7h80q10 0 18 -7t-2 -25l-838 -1401q-10 -18 -20 -25.5t-29 -7.5h-71q-16 0 -23.5 7zM1028 414q0 96 22.5 175 t67.5 135t113.5 87t163.5 31q98 0 166.5 -31t112.5 -86t63.5 -134t19.5 -175t-21.5 -174t-66.5 -135.5t-114.5 -88t-163.5 -30.5q-186 0 -274.5 115.5t-88.5 310.5zM1198 416q0 -55 9.5 -107.5t31 -93.5t59 -66.5t97.5 -25.5q55 0 93 25.5t60.5 66.5t31.5 93.5t9 105.5 q0 55 -9 107t-32.5 93t-61.5 66t-95 25q-55 0 -93 -25t-59.5 -66t-31 -93t-9.5 -105z" />
<glyph unicode="&#x26;" horiz-adv-x="1515" d="M143 330q0 76 26 145.5t69 130t100 110.5t121 87q-29 33 -56.5 72.5t-48 82.5t-33 86t-12.5 84q0 76 28 136.5t75 103.5t111.5 66.5t135.5 23.5q74 0 136.5 -21.5t108.5 -61.5t71.5 -94t25.5 -122q0 -76 -24.5 -136t-63.5 -109.5t-89 -87.5t-99 -68q59 -80 107.5 -136.5 t93.5 -111.5q63 117 151 204t205 115q23 6 42 9.5t44 5.5q20 0 25 -19l18 -112q4 -14 -5 -20.5t-20 -8.5q-74 -12 -127 -43t-92 -74t-68.5 -94t-54.5 -106q29 -35 76 -90.5t94 -108.5q53 -63 115 -131q6 -8 4 -22.5t-18 -14.5h-156q-18 0 -30.5 4t-24.5 19l-160 180 q-37 -45 -81 -86t-97 -73t-114.5 -50.5t-135.5 -18.5q-176 0 -274.5 94.5t-98.5 260.5zM336 348q0 -106 54 -152t147 -46q41 0 83 16t80.5 44t71 63.5t57.5 74.5q-66 80 -131 162t-127 160q-47 -29 -89 -63t-74.5 -73.5t-52 -86t-19.5 -99.5zM504 1139q0 -33 11 -67 t28.5 -67.5t39 -63.5t42.5 -54q29 18 61.5 42.5t60 56.5t46 71t18.5 86q0 27 -9 54.5t-27.5 49t-46.5 35.5t-66 14q-74 0 -116 -44t-42 -113z" />
<glyph unicode="'" horiz-adv-x="450" d="M104 1403q-2 12 6.5 24.5t28.5 12.5h170q23 0 31 -12.5t6 -24.5l-53 -479q-4 -23 -12.5 -30t-36.5 -7h-47q-39 0 -41 31z" />
<glyph unicode="(" horiz-adv-x="604" d="M61 655q0 135 32 253t85 220.5t125 190.5t150 164q18 18 36 4l72 -49q10 -8 9 -14.5t-7 -14.5q-135 -160 -205.5 -337t-70.5 -404q0 -244 72.5 -422t203.5 -330q14 -16 0 -27l-74 -53q-18 -14 -34 2q-78 76 -150 164t-126 189.5t-86 217t-32 246.5z" />
<glyph unicode=")" horiz-adv-x="614" d="M58.5 -100.5q0.5 6.5 7.5 14.5q135 160 205.5 337t70.5 404q0 244 -72.5 422t-203.5 330q-14 16 0 27l73 53q18 14 35 -2q78 -76 149.5 -164t126 -189.5t86 -217t31.5 -246.5q0 -135 -31.5 -253t-86 -220.5t-125 -190.5t-148.5 -164q-18 -18 -37 -4l-71 49 q-10 8 -9.5 14.5z" />
<glyph unicode="*" horiz-adv-x="991" d="M147 1114l27 86q8 33 43 17l236 -99l-23 266q-2 10 4 17.5t23 7.5h96q18 0 23.5 -8t3.5 -19l-23 -264l238 101q20 8 28 3t13 -18l28 -92q10 -31 -16 -35l-252 -65l166 -199q14 -16 12 -24.5t-16 -18.5l-70 -53q-20 -16 -29.5 -14t-19.5 20l-133 223l-137 -227 q-10 -18 -19.5 -19.5t-19.5 9.5l-80 61q-25 16 -6 41l168 201l-242 63q-31 8 -23 39z" />
<glyph unicode="+" d="M106 645v121q0 18 5.5 27.5t27.5 9.5h371v379q0 23 9 27.5t28 4.5h127q20 0 28.5 -5t8.5 -27v-379h368q23 0 28 -9.5t5 -27.5v-121q0 -20 -5 -28.5t-28 -8.5h-368v-381q0 -23 -8.5 -27.5t-28.5 -4.5h-127q-18 0 -27.5 5t-9.5 27v381h-371q-23 0 -28 8.5t-5 28.5z" />
<glyph unicode="," horiz-adv-x="514" d="M121 -227l31 495q2 12 9 24.5t27 12.5h199q23 0 32 -12t5 -25l-150 -489q-8 -23 -14 -30t-29 -7h-69q-45 0 -41 31z" />
<glyph unicode="-" horiz-adv-x="747" d="M102 512v156q0 18 5.5 27.5t27.5 9.5h477q23 0 28 -9.5t5 -27.5v-156q0 -20 -5 -28.5t-28 -8.5h-477q-23 0 -28 8.5t-5 28.5z" />
<glyph unicode="." horiz-adv-x="563" d="M119 137q0 70 47 117t115 47q72 0 117.5 -46t45.5 -118q0 -68 -46 -115t-117 -47q-68 0 -115 46.5t-47 115.5z" />
<glyph unicode="/" horiz-adv-x="905" d="M35 -164l643 1725q10 33 45 32h133q10 0 20.5 -7t4.5 -25l-643 -1725q-10 -33 -48 -33h-127q-16 0 -25 7.5t-3 25.5z" />
<glyph unicode="0" d="M63 686q0 160 34 291t101.5 225t170 145.5t241.5 51.5q147 0 251 -51.5t168.5 -143.5t94 -223t29.5 -291t-31.5 -291t-98.5 -224t-170 -145.5t-247 -52.5q-139 0 -241.5 50.5t-169 143.5t-99.5 224t-33 291zM268 690q0 -102 15.5 -199.5t54.5 -174t104.5 -124 t167.5 -47.5q98 0 164 47.5t105 124t55 174t16 195.5q0 100 -16 198.5t-56 174.5t-105.5 123t-166.5 47q-98 0 -163.5 -46t-103.5 -122t-54.5 -173t-16.5 -198z" />
<glyph unicode="1" d="M246 37v106q0 20 5 28.5t28 8.5h241v996l-233 -37q-20 -4 -26.5 3t-6.5 23v97q0 18 6 28t29 17l309 90q47 14 84 0.5t37 -62.5v-1155h250q23 0 27.5 -8t4.5 -29v-106q0 -20 -5 -28.5t-27 -8.5h-690q-23 0 -28 8t-5 29z" />
<glyph unicode="2" d="M113 158q0 63 43 154t133 186q82 88 170 150.5t147 99.5q68 39 113 72.5t72.5 65.5t40 64.5t12.5 71.5q0 90 -69.5 139t-199.5 49q-78 0 -158.5 -26.5t-150.5 -79.5q-14 -10 -27.5 -11t-23.5 13l-72 94q-16 27 11 47q92 72 204.5 112t229.5 40q92 0 176 -22.5 t147.5 -67.5t101.5 -114t38 -161q0 -76 -23.5 -137t-68 -113.5t-106.5 -98.5t-140 -91q-123 -72 -231.5 -174.5t-155.5 -239.5h694q23 0 28 -8t5 -29v-106q0 -20 -5.5 -28.5t-27.5 -8.5h-746q-92 0 -126.5 36t-34.5 122z" />
<glyph unicode="3" d="M82 154l68 102q18 29 55 4q76 -51 157.5 -74.5t167.5 -23.5q164 0 238 72.5t74 189.5q0 41 -16.5 80t-51.5 69.5t-89 49t-130 18.5h-61q-29 0 -43.5 11.5t-14.5 45.5v60q0 61 51 61h52q129 0 196.5 55.5t67.5 153.5q0 51 -22.5 86t-58.5 57.5t-82 32.5t-93 10 q-88 0 -173 -25.5t-145 -68.5q-35 -25 -55 6l-63 91q-16 23 4 38q41 37 94 64t112.5 45t121 27.5t120.5 9.5q92 0 173 -22.5t142.5 -67.5t96.5 -109.5t35 -150.5q0 -115 -61.5 -198t-155.5 -118v-10q55 -8 102 -34.5t82 -67.5t54.5 -96.5t19.5 -118.5q0 -92 -35 -170 t-99.5 -136.5t-156.5 -91.5t-209 -33q-123 0 -246 28t-219 108q-18 16 -4 41z" />
<glyph unicode="4" d="M45 403v25q0 35 9 65.5t36 65.5l582 758q23 29 53.5 58.5t71.5 29.5h65q63 0 87 -25.5t24 -87.5v-817h141q23 0 30 -7t7 -28v-100q0 -20 -7 -27.5t-30 -7.5h-141v-272q0 -23 -9.5 -28t-27.5 -5h-129q-18 0 -26.5 5t-8.5 28v270h-618q-41 0 -75 19.5t-34 80.5zM272 483 l4 -8h496v655l-4 5z" />
<glyph unicode="5" d="M98 152l68 102q18 29 55 4q76 -51 165 -74.5t187 -23.5q156 0 246 76.5t90 205.5q0 68 -24.5 114t-64.5 76t-91 43t-106 13q-57 0 -99.5 -6t-78 -16.5t-70.5 -25.5t-78 -34q-29 -12 -49.5 -11t-42.5 11l-31 12q-27 10 -43 33t-12 66l51 526q6 68 45 99.5t86 31.5h682 q23 0 29 -8t6 -29v-106q0 -20 -6 -28.5t-29 -8.5h-618l-41 -385q78 35 162.5 46t160.5 11q98 0 182 -28.5t147.5 -83t99.5 -131t36 -170.5q0 -111 -38 -200t-107.5 -151.5t-168 -95.5t-218.5 -33q-63 0 -129 6.5t-127.5 21.5t-117.5 42t-104 68q-18 16 -4 41z" />
<glyph unicode="6" d="M78 621q0 164 36 307t114.5 248.5t205.5 167t309 61.5q53 0 120 -8t116 -29q16 -6 22.5 -14t-2.5 -29l-34 -111q-6 -16 -15.5 -20t-31.5 2q-29 10 -80.5 19.5t-98.5 9.5q-98 0 -175 -31t-132 -86t-88 -131t-45 -168q35 12 79 22.5t92 16.5t96 10t91 4q98 0 187.5 -24.5 t157 -76.5t107.5 -131t40 -190q0 -121 -43 -208t-114.5 -144t-165 -84t-191.5 -27q-135 0 -238.5 44.5t-174 127t-107.5 201.5t-37 271zM281 555q0 -88 26.5 -162t73.5 -127t113.5 -82.5t144.5 -29.5q141 0 223 70.5t82 199.5q0 55 -17.5 102t-52 82t-89 54.5t-128.5 19.5 q-96 0 -186 -12.5t-188 -40.5q-2 -31 -2 -45.5v-28.5z" />
<glyph unicode="7" d="M86 1233v106q0 20 5 28.5t28 8.5h850q39 0 69.5 -17.5t30.5 -66.5v-55q0 -33 -8 -59.5t-25 -55.5l-583 -1089q-10 -18 -20.5 -25.5t-33.5 -7.5h-145q-16 0 -24.5 13.5t1.5 33.5l613 1149h-725q-23 0 -28 8t-5 29z" />
<glyph unicode="8" d="M94 383q0 59 19.5 115.5t53.5 103.5t80 82t101 53v6q-55 20 -93 54t-62.5 72t-35 78t-10.5 73q0 88 36 159.5t97.5 122t145.5 77t182 26.5q104 0 189.5 -28.5t144.5 -78t91 -117t32 -145.5q0 -33 -11.5 -74.5t-36 -82.5t-62 -78t-91.5 -58v-6q131 -39 192.5 -137 t61.5 -217q0 -68 -29.5 -139.5t-91 -131t-158 -97.5t-231.5 -38q-133 0 -229 32t-159.5 87.5t-94.5 129t-31 157.5zM301 393q0 -47 16.5 -90t52.5 -78t94 -55t142 -20q88 0 146.5 22.5t93.5 59t50 81.5t15 88q0 59 -24.5 105.5t-65.5 77t-97 46t-118 15.5 q-59 0 -113.5 -17.5t-97.5 -49t-68.5 -78.5t-25.5 -107zM348 1006q0 -43 20.5 -79t55.5 -61.5t81 -40t99 -14.5q49 0 96.5 15.5t84 42t58 63.5t21.5 80q0 92 -65.5 153.5t-194.5 61.5q-66 0 -114 -18.5t-79.5 -49.5t-47 -70.5t-15.5 -82.5z" />
<glyph unicode="9" d="M63 942q0 121 43.5 208t115 144.5t163.5 84t193 26.5q133 0 237.5 -44t175 -127t107.5 -202t37 -270q0 -164 -36 -307.5t-116 -249t-207 -167t-309 -61.5q-51 0 -117.5 8.5t-116.5 28.5q-16 6 -22 14.5t0 28.5l37 111q4 14 11 21.5t30 0.5q10 -4 31.5 -9t48 -10t53.5 -9 t49 -4q98 0 175 30.5t132.5 86t89 131t45.5 167.5q-70 -25 -162 -39t-178 -14q-98 0 -189 24.5t-162.5 77t-115 131t-43.5 189.5zM268 958q0 -55 19.5 -102t56.5 -82t90 -54.5t119 -19.5q96 0 186 12.5t189 41.5q4 31 4 45v28q0 88 -30 162t-80 127t-114.5 83t-134.5 30 q-59 0 -114.5 -18.5t-97.5 -52.5t-67.5 -85.5t-25.5 -114.5z" />
<glyph unicode=":" horiz-adv-x="559" d="M119 141q0 68 46 116t114 48q72 0 117.5 -46t45.5 -116t-47 -115.5t-116 -45.5q-68 0 -114 46t-46 113zM119 936q0 68 46 115t114 47q72 0 117.5 -46t45.5 -116q0 -68 -47 -115t-116 -47q-68 0 -114 46t-46 116z" />
<glyph unicode=";" horiz-adv-x="546" d="M133 -227l31 495q2 12 9 24.5t28 12.5h198q23 0 32 -12t5 -25l-149 -489q-8 -23 -14.5 -30t-28.5 -7h-70q-45 0 -41 31zM143 936q0 68 46.5 115t115.5 47q70 0 116 -46t46 -116q0 -68 -47 -115t-115 -47q-70 0 -116 46t-46 116z" />
<glyph unicode="&#x3c;" d="M106 664v69q0 31 12.5 43t41.5 27l915 418q20 10 27.5 0.5t7.5 -25.5v-115q0 -20 -6 -32.5t-25 -22.5l-710 -317l700 -306q25 -14 33 -24t8 -37v-127q0 -10 -8 -19.5t-25 -0.5l-917 415q-23 10 -36 20.5t-18 33.5z" />
<glyph unicode="=" d="M158 467v111q0 18 5 27t27 9h838q23 0 28 -9t5 -27v-111q0 -20 -5 -28.5t-28 -8.5h-838q-23 0 -27.5 8t-4.5 29zM158 831v111q0 18 5 27.5t27 9.5h838q23 0 28 -9t5 -28v-111q0 -20 -5 -28t-28 -8h-838q-23 0 -27.5 8t-4.5 28z" />
<glyph unicode="&#x3e;" d="M106 215v127q0 27 8.5 37t32.5 24l701 306l-711 317q-18 10 -24.5 22.5t-6.5 32.5v115q0 16 7.5 25.5t27.5 -0.5l916 -418q29 -14 41 -26.5t12 -43.5v-69q-4 -23 -17.5 -33t-35.5 -21l-918 -415q-16 -8 -24.5 1t-8.5 19z" />
<glyph unicode="?" horiz-adv-x="1087" d="M119 1257q-16 27 10 48q45 37 99.5 63.5t110.5 44t108.5 26.5t95.5 9q98 0 181 -22.5t143.5 -67.5t94 -113.5t33.5 -159.5q0 -59 -18.5 -109t-49 -93t-69.5 -82t-80 -74t-78.5 -67.5t-67.5 -66.5t-48.5 -70t-18.5 -74v-39q0 -12 -6 -21.5t-24 -9.5h-142q-31 0 -31 29v51 q0 68 25 121t62.5 97t84 82t91.5 75q63 53 112 111.5t49 141.5q0 25 -9 56t-35.5 57.5t-75 45t-123.5 18.5q-78 0 -159 -27t-151 -80q-14 -10 -27 -11t-24 13zM303 133q0 66 49 112t115 46q18 0 44 -7.5t50.5 -24.5t40.5 -48t16 -78q0 -66 -45 -112t-112 -46 q-66 0 -112 45.5t-46 112.5z" />
<glyph unicode="@" horiz-adv-x="2015" d="M164 664q0 178 68.5 328.5t188.5 261t282.5 173t351.5 62.5q184 0 331.5 -55.5t251 -156.5t158.5 -243.5t55 -318.5q0 -106 -30.5 -196.5t-86 -155t-132 -100.5t-170.5 -36q-109 0 -172.5 38t-79.5 95q-45 -35 -118 -64.5t-144 -29.5q-150 0 -223.5 67.5t-73.5 192.5 q0 53 18 106.5t60 95.5t112 68.5t174 26.5h168v19q0 68 -31.5 107.5t-134.5 39.5q-59 0 -118.5 -11t-100.5 -22q-18 -4 -30.5 -2t-16.5 23l-19 78q-4 12 0.5 23.5t26.5 21.5q63 23 133 33t148 10q168 0 243.5 -76t75.5 -215v-332q0 -16 3 -40.5t15.5 -47t39 -38t73.5 -15.5 q115 0 174.5 92t59.5 238q0 141 -45 257.5t-128 199.5t-201 129t-265 46q-164 0 -298 -53t-229.5 -144t-147.5 -214t-52 -264q0 -150 51 -273t142 -211t219 -136t282 -48q35 0 108.5 8t155.5 37q16 4 27.5 3t17.5 -21l25 -70q6 -20 -3.5 -29.5t-25.5 -17.5 q-74 -31 -154.5 -44.5t-156.5 -13.5q-197 0 -354.5 59.5t-268 167t-170 257t-59.5 330.5zM799 526q0 -35 13 -57.5t34.5 -34.5t48.5 -17t55 -5q41 0 95.5 15t107.5 54v189h-160q-29 0 -62.5 -3t-63 -17.5t-49 -43t-19.5 -80.5z" />
<glyph unicode="A" horiz-adv-x="1288" d="M34 14q-3 6 -2 13q0 8 3 16l454 1305q18 53 41 70.5t76 19.5h68q61 0 83.5 -19.5t39.5 -70.5l456 -1305q3 -8 3 -15.5t-3 -13.5q-6 -14 -26 -14h-154q-23 0 -35 4t-20 29l-96 291h-555l-97 -291q-6 -16 -16 -24.5t-33 -8.5h-158q-23 0 -29 14zM422 510h438l-125 395 l-92 291h-10l-86 -281z" />
<glyph unicode="B" horiz-adv-x="1339" d="M154 111v1214q0 59 25.5 85t84.5 26l457 2q96 0 178 -19.5t141.5 -62.5t92 -109.5t32.5 -161.5q0 -94 -47 -168.5t-117 -113.5v-15q117 -45 171.5 -145t54.5 -213q0 -96 -37 -175t-101.5 -136.5t-150.5 -88t-184 -30.5h-490q-59 0 -84.5 25.5t-25.5 85.5zM367 195h364 q82 0 135.5 24.5t85 61t44 80.5t12.5 83q0 111 -70 179.5t-205 68.5h-366v-497zM367 870h362q31 0 69 8.5t70.5 30t54 60.5t21.5 100q0 82 -54 129t-147 47h-376v-375z" />
<glyph unicode="C" horiz-adv-x="1241" d="M113 696q0 172 46 311.5t129 239t200.5 153.5t259.5 54q86 0 181 -15.5t199 -68.5q12 -6 17.5 -17.5t-6.5 -33.5l-52 -107q-8 -14 -15 -19t-25 3q-63 27 -137 43t-154 16q-113 0 -194 -48t-132 -127t-75.5 -179t-24.5 -205q0 -104 20.5 -198.5t70.5 -166t134 -113.5 t213 -42q90 0 169 20.5t146 49.5q27 10 38.5 1t15.5 -20l43 -98q10 -21 10 -32q0 -4 -1 -6q-5 -9 -20 -19q-98 -59 -215.5 -77t-222.5 -18q-145 0 -260 43t-194.5 131.5t-121.5 223.5t-42 321z" />
<glyph unicode="D" horiz-adv-x="1396" d="M154 111v1214q0 59 25.5 85t84.5 26l375 2q160 0 279.5 -49.5t201.5 -142.5t123 -225t41 -294q0 -160 -37 -294t-113.5 -230.5t-194.5 -149.5t-280 -53h-395q-59 0 -84.5 25.5t-25.5 85.5zM369 193h266q125 0 208 39.5t133 110.5t70.5 168t20.5 212q0 109 -21.5 204 t-71.5 165.5t-135 111.5t-210 41h-260v-1052z" />
<glyph unicode="E" horiz-adv-x="1204" d="M154 360v713q0 72 19.5 137.5t62.5 115.5t110.5 80t163.5 30h561q29 0 36 -12.5t7 -34.5v-99q0 -27 -7 -36t-36 -9h-561q-78 0 -111.5 -33.5t-33.5 -107.5v-252h639q27 0 33.5 -10.5t6.5 -36.5v-86q0 -23 -7 -35t-33 -12h-639v-340q0 -61 33.5 -100t111.5 -39h569 q29 0 36 -10.5t7 -37.5v-98q0 -23 -7 -35t-36 -12h-569q-104 0 -173 29.5t-110 79t-57 115t-16 136.5z" />
<glyph unicode="F" horiz-adv-x="1187" d="M154 43v1030q0 72 17 137.5t58 115.5t110 80t171 30h563q29 0 36 -12.5t7 -34.5v-97q0 -27 -7 -37t-36 -10h-563q-78 0 -111.5 -32.5t-33.5 -106.5v-270h636q27 0 34 -10.5t7 -37.5v-88q0 -23 -7 -35t-34 -12h-636v-610q0 -29 -10.5 -36t-37.5 -7h-116q-23 0 -35 7 t-12 36z" />
<glyph unicode="G" horiz-adv-x="1347" d="M113 700q0 172 44 311.5t124.5 238t198.5 151.5t265 53q86 0 189.5 -15.5t208.5 -68.5q12 -6 17 -17.5t-7 -33.5l-51 -117q-8 -14 -15.5 -19t-25.5 3q-63 27 -147.5 43t-163.5 16q-117 0 -198 -47t-130 -124t-70.5 -175t-21.5 -203q0 -109 17.5 -204t64.5 -166.5 t129 -113.5t211 -42q14 0 43.5 1t66.5 5t78 12.5t78 22.5v438q-14 2 -26.5 2h-26.5h-18q-62 0 -133 -12q-81 -14 -159 -49q-23 -10 -34 -11t-21 17l-43 104q-8 16 -5 27.5t19 22.5q68 43 165.5 67.5t189.5 24.5q53 0 85.5 -2t63.5 -6q88 -16 119 -55.5t31 -127.5v-508 q0 -39 -31 -59q-55 -35 -121.5 -55.5t-131 -31.5t-120 -15.5t-90.5 -4.5q-145 0 -260 43t-194.5 132.5t-121.5 225.5t-42 322z" />
<glyph unicode="H" horiz-adv-x="1421" d="M154 43v1348q0 29 12 36t35 7h118q27 0 37.5 -7.5t10.5 -35.5v-545h688v545q0 29 12 36t35 7h119q27 0 37 -7.5t10 -35.5v-1348q0 -29 -10.5 -36t-36.5 -7h-119q-23 0 -35 7t-12 36v621h-688v-621q0 -29 -10.5 -36t-37.5 -7h-118q-23 0 -35 7t-12 36z" />
<glyph unicode="I" horiz-adv-x="563" d="M176 43v1348q0 29 12.5 36t34.5 7h119q27 0 37 -7.5t10 -35.5v-1348q0 -29 -10 -36t-37 -7h-119q-23 0 -35 7t-12 36z" />
<glyph unicode="J" horiz-adv-x="1161" d="M14 97q-2 3 -2 7q0 10 8 27l54 107q14 29 49 10q68 -33 158 -55.5t184 -22.5q176 0 249.5 101.5t73.5 301.5l-2 818q0 29 12.5 36t35.5 7h118q27 0 37 -7.5t10 -35.5v-209v-150.5t-1 -115t-1 -101.5v-110.5v-141.5q0 -137 -30.5 -245.5t-97 -184.5t-168 -116t-242.5 -40 q-45 0 -98.5 5.5t-110.5 16.5t-112.5 30.5t-104.5 48.5q-14 10 -19 19z" />
<glyph unicode="K" horiz-adv-x="1308" d="M154 43v1348q0 29 12 36t35 7h114q27 0 37 -7.5t10 -35.5v-668l9 -4l213 268l346 420q10 10 27.5 18.5t41.5 8.5h175q18 0 23 -10.5t-5 -22.5l-395 -481l493 -875q7 -13 7 -23q0 -6 -2 -10q-5 -12 -25 -12h-148q-35 0 -51 6t-33 35l-389 702l-287 -356v-344 q0 -29 -10 -36t-37 -7h-114q-23 0 -35 7t-12 36z" />
<glyph unicode="L" horiz-adv-x="1142" d="M154 360v1035q0 29 12 36t35 7h116q27 0 37.5 -7.5t10.5 -35.5v-1047q0 -155 155 -155h2h568q23 0 27.5 -9.5t4.5 -27.5v-117q0 -20 -5 -29.5t-27 -9.5h-586q-102 0 -169 29.5t-108 80t-57 115t-16 135.5z" />
<glyph unicode="M" horiz-adv-x="1675" d="M154 43v1280q0 53 22.5 83t87.5 30h64q47 0 73.5 -16.5t49.5 -71.5l264 -668l119 -311h8l116 305l267 674q23 55 49 71.5t74 16.5h63q66 0 88.5 -30t22.5 -83v-1280q0 -29 -10.5 -36t-36.5 -7h-109q-23 0 -35 7t-12 36v1014h-12l-117 -305l-197 -494q-20 -53 -41.5 -71.5 t-74.5 -18.5h-78q-53 0 -75 18.5t-42 71.5l-199 485l-114 289h-13v-989q0 -29 -10 -36t-37 -7h-108q-23 0 -35 7t-12 36z" />
<glyph unicode="N" horiz-adv-x="1433" d="M154 43v1280q0 57 23.5 85t86.5 28h62q49 0 71.5 -20.5t51.5 -67.5l444 -744l174 -299h6v1088q0 29 12.5 36t34.5 7h113q27 0 37 -7.5t10 -35.5v-1280q0 -57 -23.5 -85t-87.5 -28h-61q-49 0 -71.5 20.5t-51.5 67.5l-450 752l-168 290h-7v-1087q0 -29 -10 -36t-37 -7h-112 q-23 0 -35 7t-12 36z" />
<glyph unicode="O" horiz-adv-x="1458" d="M113 715q0 178 47 316t130 232.5t195.5 143.5t243.5 49q152 0 266.5 -50t192.5 -145.5t118 -230.5t40 -307q0 -360 -158 -553t-465 -193q-301 0 -455.5 185.5t-154.5 552.5zM326 723q0 -125 19.5 -227.5t65.5 -175t122.5 -112.5t191.5 -40q117 0 194.5 46t125 122 t66.5 174.5t19 204.5t-16 206.5t-59 176.5t-120 122t-200 46q-104 0 -181 -43t-127 -117t-75.5 -173t-25.5 -210z" />
<glyph unicode="P" horiz-adv-x="1255" d="M154 43v1284q0 59 25.5 85t84.5 26h477q98 0 181.5 -31t142.5 -88t93 -136t34 -175q0 -55 -18.5 -132t-68.5 -147t-140.5 -118t-231.5 -48h-371v-520q0 -29 -10 -36t-37 -7h-114q-23 0 -35 7t-12 36zM365 750h331q145 0 211 67t66 176q0 39 -12.5 83t-44 81t-86 61.5 t-140.5 24.5h-325v-493z" />
<glyph unicode="Q" horiz-adv-x="1458" d="M113 715q0 178 47 316t130 232.5t195.5 143.5t243.5 49q152 0 266.5 -50t192.5 -145.5t118 -230.5t40 -307q0 -360 -158 -553t-465 -193q-301 0 -455.5 185.5t-154.5 552.5zM326 723q0 -125 19.5 -227.5t65.5 -175t122.5 -112.5t191.5 -40q117 0 194.5 46t125 122 t66.5 174.5t19 204.5t-16 206.5t-59 176.5t-120 122t-200 46q-104 0 -181 -43t-127 -117t-75.5 -173t-25.5 -210zM639 -147q0 20 5 28t28 8h233q82 0 157 -10t139.5 -27.5t113.5 -40t80 -44.5q16 -12 20 -23q1 -2 1 -6q0 -9 -7 -21l-51 -84q-13 -25 -34 -25q-12 0 -28 9 q-82 47 -197.5 70.5t-248.5 23.5h-178q-23 0 -28 9.5t-5 27.5v105z" />
<glyph unicode="R" horiz-adv-x="1296" d="M154 43v1284q0 59 25.5 85t84.5 26h471q98 0 179 -30t139.5 -84t91.5 -130t33 -166q0 -123 -61.5 -213t-164.5 -131v-10q43 -12 71 -31.5t47.5 -45.5t31.5 -56.5t22 -67.5l119 -432q2 -6 2 -13q0 -6 -1 -12q-3 -16 -30 -16h-153q-10 0 -22.5 4t-18.5 25l-105 387 q-33 115 -103.5 153.5t-170.5 38.5h-270v-565q0 -29 -10.5 -36t-36.5 -7h-123q-23 0 -35 7t-12 36zM373 791h323q74 0 124 18t83 50t47.5 74t14.5 87q0 33 -9.5 71.5t-37 72.5t-76.5 56.5t-129 22.5h-340v-452z" />
<glyph unicode="S" horiz-adv-x="1181" d="M82 125l55 125q12 25 37 14q221 -96 410 -96q172 0 246.5 58.5t74.5 154.5q0 49 -20.5 87t-60.5 69.5t-98 59.5t-136 58q-115 45 -201 88t-144.5 92.5t-88 109t-29.5 136.5q0 170 112.5 273.5t335.5 103.5q51 0 110.5 -5t118 -15.5t114 -25.5t102.5 -36q25 -12 14 -35 l-47 -131q-6 -16 -12 -18t-17 2q-104 37 -205.5 54.5t-185.5 17.5q-117 0 -172 -49.5t-55 -118.5q0 -45 21.5 -79t66.5 -64.5t112.5 -61.5t159.5 -70q78 -33 154 -68.5t135.5 -84.5t96 -117t36.5 -164q0 -106 -40 -184t-108.5 -128t-159.5 -75t-193 -25q-127 0 -266.5 21.5 t-262.5 83.5q-16 6 -16 21q0 10 6 22z" />
<glyph unicode="T" horiz-adv-x="1136" d="M31 1282v115q0 18 5 27.5t27 9.5h1010q23 0 28 -9.5t5 -27.5v-115q0 -18 -5 -26.5t-28 -8.5h-401v-1204q0 -29 -10.5 -36t-36.5 -7h-123q-23 0 -35 7t-12 36v1204h-392q-23 0 -27.5 8.5t-4.5 26.5z" />
<glyph unicode="U" horiz-adv-x="1400" d="M152 1391q0 29 12 36t35 7h123q27 0 37 -7.5t10 -35.5v-760q0 -119 15 -206t59 -145.5t127 -87t218 -28.5q35 0 100.5 3t149.5 19v1205q0 29 12.5 36t34.5 7h123q27 0 33 -7.5t6 -35.5v-1192q0 -82 -35.5 -133.5t-132.5 -67.5q-78 -12 -157.5 -17.5t-145.5 -5.5 q-170 0 -288.5 33t-192.5 109t-107.5 200.5t-33.5 309.5z" />
<glyph unicode="V" horiz-adv-x="1310" d="M35 1407q-3 8 -3 13q0 16 21 16h166q31 0 39 -27l291 -889l100 -301h13l92 299l299 891q8 20 18 23.5t27 3.5h162q19 0 19 -15q0 -6 -3 -14l-463 -1323q-16 -45 -35.5 -63.5t-64.5 -20.5h-101q-47 0 -72.5 16.5t-43.5 67.5z" />
<glyph unicode="W" horiz-adv-x="1712" d="M33 1407q-2 7 -2 12q0 17 20 17h166q33 0 39 -27l150 -829l57 -330h12l66 325l157 758q8 41 33 72t88 31h88q53 0 78 -29t35 -74l151 -747l66 -336h12l62 338l151 821q6 27 39 27h160q20 0 20 -18q0 -5 -2 -11l-276 -1323q-10 -53 -40 -68.5t-77 -15.5h-100 q-45 0 -66.5 26.5t-32.5 73.5l-161 770l-64 326h-8l-66 -328l-163 -768q-10 -47 -32 -73.5t-67 -26.5h-100q-47 0 -77 15.5t-40 68.5z" />
<glyph unicode="X" horiz-adv-x="1169" d="M22 9l-2 6q0 6 5 14l438 706l-412 674q-4 8 -1 17.5t20 9.5h161q29 0 40.5 -5.5t21.5 -25.5l295 -498l293 498q10 18 22 24.5t39 6.5h154q16 0 19 -10.5t-3 -20.5l-407 -664l440 -712q2 -6 2 -11q0 -4 -1 -8q-3 -10 -20 -10h-168q-27 0 -39 7t-22 24l-315 538l-318 -538 q-10 -16 -22.5 -23.5t-38.5 -7.5h-162q-15 0 -19 9z" />
<glyph unicode="Y" horiz-adv-x="1183" d="M24 1428q3 8 17 8h174q16 0 25.5 -5.5t19.5 -23.5l174 -332l162 -321h8l170 336l166 317q16 29 45 29h162q12 0 15 -8q1 -4 1 -8t-2 -9l-461 -844v-534q0 -23 -7 -28t-27 -5h-136q-18 0 -27 5t-9 28v534l-469 844q-2 5 -2 9t1 8z" />
<glyph unicode="Z" horiz-adv-x="1263" d="M61 100v33q0 41 11.5 67.5t38.5 55.5l833 991l-4 6h-739q-23 0 -28 8.5t-5 26.5v111q0 18 5 27.5t28 9.5h848q59 0 88.5 -23.5t29.5 -83.5v-43q0 -41 -15 -71.5t-42 -61.5l-803 -958l4 -13h842q23 0 28 -8t5 -29v-108q0 -20 -5 -28.5t-28 -8.5h-979q-113 0 -113 100z" />
<glyph unicode="[" horiz-adv-x="641" d="M129 -147v1585q0 18 5 27.5t28 9.5h393q23 0 28 -9.5t5 -27.5v-82q0 -18 -5 -26.5t-28 -8.5h-227v-1352h227q23 0 28 -8t5 -27v-81q0 -18 -5 -27.5t-28 -9.5h-393q-23 0 -28 9t-5 28z" />
<glyph unicode="\" horiz-adv-x="905" d="M35 1561q-8 18 3 25t21 7h134q18 0 27 -7t18 -25l643 -1725q6 -18 -3.5 -25.5t-25.5 -7.5h-127q-37 0 -47 33z" />
<glyph unicode="]" horiz-adv-x="641" d="M104 -66q0 18 5.5 26.5t27.5 8.5h228v1352h-228q-23 0 -28 8t-5 27v82q0 18 5.5 27.5t27.5 9.5h393q23 0 28 -9.5t5 -27.5v-1585q0 -18 -5 -27.5t-28 -9.5h-393q-23 0 -28 9t-5 28v81z" />
<glyph unicode="^" horiz-adv-x="1085" d="M56.5 783.5q-5.5 9.5 4.5 23.5l385 627q14 23 28.5 38t37.5 15h39q29 0 42 -9.5t30 -35.5l385 -631q12 -18 4 -26.5t-25 -8.5h-133q-20 0 -32.5 6t-22.5 25l-256 432h-6l-252 -424q-14 -25 -24.5 -33t-37.5 -8h-141q-20 0 -25.5 9.5z" />
<glyph unicode="_" horiz-adv-x="1024" d="M-33 -180q0 18 5 27.5t28 9.5h1024q23 0 28 -9.5t5 -27.5v-47q0 -20 -5 -28.5t-28 -8.5h-1024q-23 0 -28 8t-5 29v47z" />
<glyph unicode="`" horiz-adv-x="1091" d="M325 1539q3 9 19 13l158 43q20 4 29.5 -3t13.5 -17l135 -324q10 -20 7 -27t-19 -12l-66 -24q-16 -4 -25.5 -1t-21.5 19l-225 314q-8 10 -5 19z" />
<glyph unicode="a" horiz-adv-x="1116" d="M92 319q0 68 22.5 133.5t75 118t140.5 84t217 31.5h233v37q0 45 -9 82t-34.5 63.5t-70.5 41t-117 14.5q-37 0 -77 -4.5t-78 -10.5t-71.5 -13t-56.5 -13q-20 -6 -30.5 -4t-14.5 20l-26 100q-8 29 18 39q82 33 185.5 46.5t185.5 13.5q209 0 304 -95.5t95 -269.5v-627 q0 -43 -35 -59q-92 -41 -201.5 -55.5t-207.5 -14.5q-133 0 -220.5 28t-137.5 75t-69.5 109.5t-19.5 129.5zM295 319q0 -100 65.5 -138t176.5 -38q16 0 44.5 1t61.5 5.5t69 11.5t66 17v336h-219q-37 0 -83 -5t-86 -24.5t-67.5 -58.5t-27.5 -107z" />
<glyph unicode="b" horiz-adv-x="1159" d="M133 88v1376q0 23 9.5 28t27.5 5h129q20 0 28.5 -5t8.5 -28v-405q66 18 139.5 28.5t126.5 10.5q121 0 209 -40t144.5 -113t84 -173t27.5 -221q0 -127 -29.5 -231.5t-92 -181.5t-158 -119t-226.5 -42q-98 0 -203.5 15.5t-197.5 54.5q-27 10 -27 41zM336 178 q55 -16 113.5 -23.5t105.5 -7.5q68 0 125 21.5t97 69t62.5 121t22.5 180.5q0 193 -74.5 289t-209.5 96q-37 0 -101.5 -6.5t-140.5 -28.5v-711z" />
<glyph unicode="c" horiz-adv-x="987" d="M92 526q0 129 34 234.5t96.5 180.5t152.5 116t203 41q84 0 159.5 -16.5t145.5 -55.5q31 -16 12 -47l-47 -98q-6 -12 -13.5 -17.5t-29.5 4.5q-47 20 -102.5 35t-120.5 15q-76 0 -130.5 -32t-89 -86.5t-51 -125t-16.5 -148.5q0 -76 13.5 -144.5t45 -119.5t88 -80.5 t142.5 -29.5q68 0 134 17t109 40q20 10 28.5 5t14.5 -17l48 -99q7 -11 7 -21q0 -16 -20 -26q-78 -45 -173 -59.5t-177 -14.5q-223 0 -343 138.5t-120 410.5z" />
<glyph unicode="d" horiz-adv-x="1157" d="M92 520q0 115 29 219.5t90 184.5t155.5 127t225.5 47q43 0 103.5 -5.5t125.5 -21.5v393q0 23 8.5 28t28.5 5h129q18 0 27.5 -5t9.5 -28v-1372q0 -29 -27 -39q-111 -47 -223 -61.5t-203 -14.5q-131 0 -222 39t-148.5 110t-83 171t-25.5 223zM301 520q0 -203 80 -286.5 t223 -83.5q49 0 113.5 9t103.5 25v711q-72 18 -120 23.5t-95 5.5q-66 0 -121 -21.5t-96 -70t-64.5 -125t-23.5 -187.5z" />
<glyph unicode="e" horiz-adv-x="1110" d="M92 532q0 135 37 240t101.5 177.5t151.5 110.5t189 38q117 0 202 -32t140.5 -90t82 -141t26.5 -184q0 -53 -14.5 -87t-37 -53t-54 -27.5t-64.5 -8.5h-557q2 -90 26.5 -151.5t67.5 -99.5t98.5 -55t118.5 -17q68 0 134.5 18t107.5 41q31 14 43 -12l49 -97q14 -33 -12 -47 q-78 -47 -166 -62.5t-170 -15.5q-236 0 -368 132.5t-132 422.5zM303 635h528q0 61 -11 114.5t-39.5 93.5t-79 63.5t-128.5 23.5q-63 0 -112 -25.5t-83 -67.5t-53.5 -94.5t-21.5 -107.5z" />
<glyph unicode="f" horiz-adv-x="706" d="M16 948v53q0 16 6.5 25.5t26.5 13.5l148 33v137q0 141 72.5 222t234.5 81q31 0 91 -4t124 -24q16 -4 18 -15q1 -3 1 -7q0 -7 -3 -15l-22 -107q-6 -25 -35 -18q-43 8 -79 10t-64 2q-78 0 -108 -33.5t-30 -87.5v-139h250q23 0 28 -8t5 -25v-94q0 -14 -5 -23.5t-28 -9.5 h-250v-882q0 -23 -8 -28t-29 -5h-127q-20 0 -28 5t-8 28v882h-148q-23 0 -28 9.5t-5 23.5z" />
<glyph unicode="g" horiz-adv-x="1157" d="M92 522q0 125 30 230.5t92 182.5t157.5 119t226.5 42q98 0 203.5 -15.5t197.5 -54.5q27 -10 27 -41v-895q0 -137 -32.5 -232.5t-98.5 -160t-164 -100t-231 -54.5q-5 -1 -10 -1q-9 0 -14 3q-9 4 -13 21l-17 129q0 25 23 29q88 12 153.5 32.5t109.5 52t65.5 80t21.5 115.5 v10q-66 -18 -137.5 -28.5t-124.5 -10.5q-121 0 -209 40t-144.5 113t-84 173t-27.5 221zM297 535q0 -193 74.5 -289t210.5 -96q37 0 101.5 6t139.5 28v711q-55 16 -113.5 23.5t-105.5 7.5q-68 0 -125 -21.5t-97 -69t-62.5 -121t-22.5 -179.5z" />
<glyph unicode="h" horiz-adv-x="1163" d="M133 33v1431q0 23 9.5 28t27.5 5h127q20 0 28.5 -5t8.5 -28v-409q61 23 134 33t132 10q115 0 197 -34t134 -97.5t76.5 -154.5t24.5 -204v-575q0 -23 -9 -28t-28 -5h-129q-20 0 -28.5 5t-8.5 28v573q0 315 -264 316q-59 0 -121.5 -8.5t-109.5 -28.5v-852q0 -23 -8.5 -28 t-28.5 -5h-127q-18 0 -27.5 5t-9.5 28z" />
<glyph unicode="i" horiz-adv-x="552" d="M143 1356q0 55 39 94t94 39t94.5 -39t39.5 -94t-39 -94t-95 -39q-55 0 -94 38.5t-39 94.5zM174 33v1009q0 23 9.5 28t27.5 5h127q20 0 28.5 -5t8.5 -28v-1009q0 -23 -8.5 -28t-28.5 -5h-127q-18 0 -27.5 5t-9.5 28z" />
<glyph unicode="j" horiz-adv-x="583" d="M-39 -311q-2 6 -2 11q0 8 4 12q6 7 21 14q70 33 111.5 75.5t64 93t30 106.5t7.5 116v925q0 23 9 28t27 5h129q20 0 28.5 -5t8.5 -28v-882q0 -147 -27.5 -252t-75.5 -175.5t-114.5 -113.5t-142.5 -70q-7 -2 -13 -2q-18 0 -24 19zM164 1356q0 55 39 94t94 39t94 -39t39 -94 t-39 -94t-94 -39t-94 38.5t-39 94.5z" />
<glyph unicode="k" horiz-adv-x="1032" d="M131 33v1431q0 23 9.5 28t27.5 5h127q20 0 28.5 -5t8.5 -28v-858l8 -4l385 457q6 8 13 12t26 4h180q10 0 13.5 -9t-3.5 -17l-272 -328l315 -696q3 -5 3 -11q0 -4 -1 -6q-2 -8 -18 -8h-152q-23 0 -32 5t-15 18l-239 536l-211 -242v-284q0 -23 -8.5 -28t-28.5 -5h-127 q-18 0 -27.5 5t-9.5 28z" />
<glyph unicode="l" horiz-adv-x="585" d="M154 188v1276q0 23 8 28t28 5h132q20 0 28 -5t8 -28v-1220q0 -55 15.5 -72.5t52.5 -17.5q18 0 37.5 1t36.5 3q16 2 22 -2t8 -21l13 -90q1 -7 1 -13q0 -8 -2 -12q-3 -8 -22 -18q-39 -16 -86 -20.5t-82 -4.5q-109 0 -153.5 50.5t-44.5 160.5z" />
<glyph unicode="m" horiz-adv-x="1835" d="M133 33v868q0 76 26.5 118t116.5 62q14 2 42 5.5t61 6.5t64.5 4t54.5 1q123 0 208 -24.5t150 -82.5q74 51 172 79t215 28q125 0 212 -36t142.5 -102.5t80 -158.5t24.5 -203v-565q0 -23 -8 -28t-29 -5h-127q-18 0 -27.5 5t-9.5 28v536q0 180 -65.5 265.5t-223.5 85.5 q-31 0 -64.5 -4.5t-67 -12.5t-64.5 -18.5t-53 -22.5q29 -59 37 -129.5t8 -154.5v-545q0 -23 -8.5 -28t-28.5 -5h-127q-18 0 -27.5 5t-9.5 28v542q0 78 -11.5 141.5t-44 108.5t-92 70t-153.5 25q-14 0 -37 -1t-48.5 -3.5t-49 -5.5t-37.5 -5v-872q0 -23 -8.5 -28t-28.5 -5 h-127q-18 0 -27.5 5t-9.5 28z" />
<glyph unicode="n" horiz-adv-x="1163" d="M133 33v876q0 76 28.5 118t114.5 54q20 2 53 5.5t69 6.5t70 4t58 1q131 0 226.5 -29t157 -91.5t91 -160.5t29.5 -237v-547q0 -23 -8 -28t-29 -5h-127q-18 0 -27.5 5t-9.5 28v540q0 88 -14 153t-51 108t-98.5 64.5t-155.5 21.5q-23 0 -68 -2.5t-108 -12.5v-872 q0 -23 -8.5 -28t-28.5 -5h-127q-18 0 -27.5 5t-9.5 28z" />
<glyph unicode="o" horiz-adv-x="1153" d="M92 537q0 135 37 239.5t102.5 176t154.5 108.5t192 37q238 0 360.5 -146.5t122.5 -408.5q0 -274 -124 -420t-366 -146q-236 0 -357.5 140.5t-121.5 419.5zM293 543q0 -90 13 -163t46 -125t87.5 -81t133.5 -29q82 0 136.5 33t87 87t47 125t14.5 147t-11 147.5t-42 125.5 t-84 87t-139 33q-74 0 -128.5 -31t-90 -83t-53 -122.5t-17.5 -150.5z" />
<glyph unicode="p" horiz-adv-x="1157" d="M133 -381v1364q0 29 27 39q104 45 213.5 60.5t208.5 15.5q125 0 217 -43t150.5 -119t87 -178t28.5 -219q0 -115 -29.5 -216.5t-89 -178t-149.5 -122t-209 -45.5q-53 0 -115.5 6.5t-136.5 24.5v-389q0 -23 -8.5 -28t-28.5 -5h-129q-18 0 -27.5 5.5t-9.5 27.5zM336 182 q72 -18 122 -24t97 -6q66 0 121 19t95 64.5t62.5 119t22.5 184.5q0 211 -82 299t-225 88q-49 0 -111.5 -9.5t-101.5 -25.5v-709z" />
<glyph unicode="q" horiz-adv-x="1159" d="M92 524q0 125 30 230.5t92 182.5t157.5 119t226.5 42q98 0 203.5 -15.5t197.5 -54.5q27 -10 27 -41v-1376q0 -23 -9 -28t-28 -5h-129q-20 0 -28.5 5t-8.5 28v405q-66 -18 -139.5 -28.5t-126.5 -10.5q-121 0 -209 40t-144.5 113t-84 173t-27.5 221zM297 537 q0 -193 74.5 -289t210.5 -96q37 0 101.5 6t139.5 28v711q-55 16 -113.5 23.5t-105.5 7.5q-68 0 -125 -21.5t-97 -68.5t-62.5 -121t-22.5 -180z" />
<glyph unicode="r" horiz-adv-x="866" d="M154 33v882q0 84 28.5 122t114.5 50q37 4 75 7.5t74 3.5q119 0 223.5 -32t194.5 -110q10 -9 10 -19q0 -7 -6 -15l-86 -113q-10 -16 -19 -13t-20 11q-117 111 -284 111q-27 0 -53.5 -3.5t-51.5 -7.5v-874q0 -23 -8 -28t-29 -5h-127q-18 0 -27 5t-9 28z" />
<glyph unicode="s" horiz-adv-x="968" d="M74 78q-2 4 -2 10q0 9 6 21l43 96q8 16 17 21t32 -5q82 -37 169 -55.5t159 -18.5q96 0 146 38t50 104q0 70 -63.5 109.5t-177.5 80.5q-84 31 -146.5 60.5t-103.5 66.5t-61.5 83t-20.5 108q0 135 96 218t277 83q84 0 162.5 -13.5t160.5 -46.5q14 -6 18.5 -18t0.5 -25 l-43 -108q-6 -14 -15.5 -14.5t-19.5 4.5q-84 31 -142.5 41t-128.5 10q-88 0 -129 -36t-41 -83q0 -31 12.5 -54.5t40 -44t71.5 -40t108 -43.5q61 -23 121.5 -49.5t108.5 -64.5t78 -90t30 -126q0 -82 -31 -141.5t-84 -99.5t-123.5 -59.5t-150.5 -19.5q-98 0 -209 18.5 t-197 65.5q-12 5 -18 17z" />
<glyph unicode="t" horiz-adv-x="770" d="M31 948v68q0 16 6 25.5t26 13.5l158 32l35 197q4 23 13.5 29t29.5 14l76 29q7 2 13 2t12 -3q10 -5 10 -28v-252h215q23 0 27.5 -9t4.5 -24v-94q0 -16 -5 -24.5t-27 -8.5h-215v-639q0 -68 30.5 -95t96.5 -27q27 0 76 5t79 9q20 4 26.5 -1t8.5 -17l21 -107q1 -8 1 -15v-6 q-1 -10 -20 -16q-63 -20 -130 -24.5t-97 -4.5q-162 0 -227.5 70t-65.5 217v651h-146q-23 0 -27.5 9.5t-4.5 23.5z" />
<glyph unicode="u" horiz-adv-x="1142" d="M133 498v546q0 23 8.5 28t28.5 5h127q18 0 27.5 -5t9.5 -28v-540q0 -88 11 -152.5t44 -107.5t91.5 -64.5t152.5 -21.5q23 0 67.5 2t108.5 12v872q0 23 8 28t29 5h127q18 0 27.5 -5t9.5 -28v-876q0 -147 -144 -172q-57 -10 -128.5 -13t-121.5 -3q-133 0 -224 28.5 t-149.5 91t-84 160.5t-25.5 238z" />
<glyph unicode="v" horiz-adv-x="1034" d="M33 1053q-1 5 -1 8q0 14 17 14h2h156q16 0 21 -5t10 -15l174 -527l106 -350h12l103 346l168 531q4 10 9 15t21 5h152q20 0 20 -13q0 -4 -2 -9l-319 -967q-18 -53 -39.5 -74.5t-75.5 -21.5h-90q-41 0 -66.5 16.5t-48.5 77.5z" />
<glyph unicode="w" horiz-adv-x="1538" d="M43 1057q-1 5 -1 8q0 14 17 14h2h156q16 0 21.5 -5t9.5 -15l102 -553l56 -297h12l78 268l131 475q10 33 31.5 59.5t80.5 26.5h70q49 0 67.5 -25.5t30.5 -66.5l123 -436l90 -320h13l55 316l102 553q4 10 9.5 15t21.5 5h156q20 0 20 -13q0 -4 -2 -9l-213 -969 q-14 -63 -45 -80.5t-70 -17.5h-82q-53 0 -73.5 18.5t-36.5 71.5l-111 377l-92 348h-8l-94 -361l-111 -364q-12 -43 -34.5 -66.5t-75.5 -23.5h-89q-39 0 -65.5 17.5t-40.5 80.5z" />
<glyph unicode="x" horiz-adv-x="987" d="M25 35l354 532l-309 473q-6 10 -4 22.5t18 12.5h156q23 0 34 -7t19 -19l205 -334l211 334q8 12 18 19t31 7h149q20 0 21.5 -11t-2.5 -17l-318 -469l357 -545q5 -9 5 -18q0 -15 -20 -15h-168q-27 0 -35 7t-16 20l-242 391l-247 -389q-10 -14 -20.5 -21.5t-33.5 -7.5h-149 q-21 0 -21 14q0 8 7 21z" />
<glyph unicode="y" horiz-adv-x="1021" d="M23 1053q-1 5 -1 8q0 14 17 14h2h158q16 0 21 -5t9 -15l156 -506l111 -379h12l123 381l168 504q4 10 9 15t21 5h152q20 0 20 -13q0 -4 -2 -9l-405 -1225q-47 -141 -126 -198.5t-200 -57.5q-27 0 -71.5 4t-96.5 18q-33 8 -24 35l24 103q4 18 12.5 21t24.5 -1 q35 -8 53.5 -11t47.5 -3q74 0 116.5 28.5t67.5 104.5l47 141h-43q-33 0 -57.5 11.5t-42.5 70.5z" />
<glyph unicode="z" horiz-adv-x="956" d="M41 78v33q0 29 8 59.5t35 58.5l602 676l-2 6h-559q-23 0 -29 8.5t-6 24.5v98q0 14 6 23.5t29 9.5h694q53 0 74.5 -18.5t21.5 -65.5v-37q0 -25 -8 -52.5t-28 -49.5l-609 -684l2 -4h607q23 0 28.5 -9.5t5.5 -23.5v-98q0 -16 -6 -24.5t-28 -8.5h-750q-51 0 -69.5 22.5 t-18.5 55.5z" />
<glyph unicode="{" horiz-adv-x="735" d="M117 623v94q0 14 5 19t21 9q55 10 82 52.5t27 140.5v211q0 92 25.5 154.5t71.5 101.5t108.5 56.5t136.5 19.5q20 0 20 -19v-112q0 -23 -20 -25q-72 -4 -106.5 -44t-34.5 -99v-256q0 -100 -40 -162t-98 -90v-8q55 -27 96.5 -88.5t41.5 -165.5v-318q0 -57 32.5 -99 t106.5 -48q23 -2 22 -21v-121q0 -18 -18 -18q-68 2 -130.5 20.5t-110.5 58.5t-75.5 104.5t-27.5 156.5v274q0 98 -27.5 140.5t-85.5 52.5q-12 4 -17 8t-5 21z" />
<glyph unicode="|" horiz-adv-x="446" d="M129 -246v1807q0 23 9 27.5t28 4.5h123q20 0 28.5 -5t8.5 -27v-1807q0 -23 -8.5 -28t-28.5 -5h-123q-18 0 -27.5 5.5t-9.5 27.5z" />
<glyph unicode="}" horiz-adv-x="735" d="M123 -74q0 18 22 21q74 6 107 48t33 99v318q0 104 41 165.5t96 88.5v8q-57 29 -97 90t-40 162v256q0 59 -35 99t-107 44q-20 2 -20 25v112q0 18 20 19q74 -2 136.5 -19.5t108.5 -56.5t71.5 -101.5t25.5 -154.5v-211q0 -98 27 -140t82 -53q16 -4 21.5 -9t5.5 -19v-94 q0 -16 -5.5 -20.5t-17.5 -8.5q-57 -10 -85 -52t-28 -141v-274q0 -92 -27.5 -156.5t-75.5 -104.5t-110.5 -58.5t-130.5 -20.5q-18 0 -18 18v121z" />
<glyph unicode="~" d="M131 586q66 82 131.5 124t147.5 42q55 0 111.5 -19.5t109.5 -43t101 -43t91 -19.5q49 0 80 29.5t66 76.5q16 20 43 4l65 -45q14 -10 15 -20.5t-7 -24.5q-49 -84 -112.5 -131t-157.5 -47q-55 0 -109.5 18.5t-106.5 42t-101 42t-92 18.5q-88 0 -168 -84q-20 -20 -41 -4 l-58 47q-23 18 -8 37z" />
<glyph unicode="&#xa1;" horiz-adv-x="563" d="M139 926q0 63 43 107t109 44t108.5 -43t42.5 -108q0 -63 -44 -107.5t-107 -44.5q-66 0 -109 43t-43 109zM178 -338l45 920q2 23 11.5 29.5t37.5 6.5h47q23 0 31 -7t10 -23l46 -926q2 -12 -6.5 -24.5t-28.5 -12.5h-156q-23 0 -31 12.5t-6 24.5z" />
<glyph unicode="&#xa2;" d="M195 526q0 242 111.5 390.5t309.5 175.5v176q0 18 7.5 23t21.5 5h45q16 0 21.5 -5t5.5 -23v-170q150 -6 268 -72q31 -16 12 -47l-47 -98q-6 -12 -13 -17.5t-30 4.5q-41 16 -89 30.5t-101 19.5v-766q59 4 116.5 19t96.5 38q20 10 28.5 5t14.5 -17l47 -99q18 -31 -12 -47 q-66 -37 -143 -52t-148 -19v-175q0 -18 -5 -23t-22 -5h-45q-14 0 -21.5 5t-7.5 23v175q-205 12 -313 149t-108 397zM397 526q0 -68 10.5 -129t35 -110t66.5 -83t107 -46v749q-59 -14 -100 -50t-67.5 -87t-39 -113.5t-12.5 -130.5z" />
<glyph unicode="&#xa3;" d="M150 692v74q0 18 5 27.5t27 9.5h142q-2 14 -6.5 40.5t-9.5 55.5t-9 57.5t-4 49.5q0 98 32.5 169.5t91 117.5t140.5 67.5t180 21.5q84 0 166 -16t152 -55q31 -16 12 -47l-45 -90q-6 -12 -13 -17.5t-30 4.5q-47 20 -108.5 34.5t-127.5 14.5q-123 0 -186 -49t-63 -141 q0 -16 3 -46t6 -61.5t7 -62.5t8 -47h400q23 0 27.5 -9.5t4.5 -27.5v-74q0 -20 -5 -28.5t-27 -8.5h-379q6 -59 6 -125q0 -86 -16.5 -182t-81.5 -168h610q23 0 28 -9t5 -28v-106q0 -20 -5.5 -28.5t-27.5 -8.5h-830q-43 0 -59 15.5t-16 41.5v37q0 43 15 61.5t44 41.5 q45 35 71.5 74.5t41 80.5t18.5 83t4 83q0 18 -1 54t-5 83h-160q-23 0 -27.5 8.5t-4.5 28.5z" />
<glyph unicode="&#xa4;" horiz-adv-x="1030" d="M49 139q-23 23 8 49l105 105q-45 55 -69.5 125.5t-24.5 148.5q0 74 22.5 140.5t63.5 121.5l-93 95q-25 25 -4 47l66 63q16 16 24.5 14.5t20.5 -14.5l96 -100q53 35 115.5 55.5t130.5 20.5q70 0 133.5 -20.5t116.5 -57.5l110 110q25 25 48 2l63 -63q16 -16 14 -25.5 t-14 -23.5l-111 -109q39 -55 60.5 -119.5t21.5 -136.5t-21.5 -138.5t-60.5 -119.5l107 -106q16 -14 19 -24.5t-13 -26.5l-63 -66q-23 -20 -50 8l-108 109q-53 -37 -116.5 -57.5t-135.5 -20.5q-133 0 -236 65l-108 -110q-14 -16 -24.5 -18.5t-26.5 14.5zM254 565 q0 -53 20.5 -100t55.5 -82t82 -55.5t100 -20.5t100 20.5t82 55.5t55.5 82t20.5 100t-20.5 100.5t-55.5 82t-82 55t-100 20.5t-100 -20.5t-82 -55t-55.5 -82t-20.5 -100.5z" />
<glyph unicode="&#xa5;" d="M116 1368q3 8 17 8h158q16 0 25.5 -4t17.5 -22l151 -336l121 -289h8l117 289l146 336q10 27 43 26h155q12 0 15.5 -8t-0.5 -16l-283 -600h235q23 0 29 -9.5t6 -27.5v-62q0 -20 -6 -28.5t-29 -8.5h-847q-23 0 -29 8.5t-6 28.5v62q0 18 6 27.5t29 9.5h208l-286 600 q-4 8 -1 16zM160 416v61q0 18 6 27.5t29 9.5h847q23 0 29 -9t6 -28v-61q0 -20 -6 -28.5t-29 -8.5h-335v-348q0 -20 -7.5 -25.5t-27.5 -5.5h-129q-16 0 -25.5 5t-9.5 26v348h-313q-23 0 -29 8t-6 29z" />
<glyph unicode="&#xa6;" horiz-adv-x="446" d="M129 -246v811q0 23 9 28t28 5h123q20 0 28.5 -5t8.5 -28v-811q0 -23 -8.5 -28t-28.5 -5h-123q-18 0 -27.5 5.5t-9.5 27.5zM129 739v811q0 23 9 28t28 5h123q20 0 28.5 -5t8.5 -28v-811q0 -23 -8.5 -27.5t-28.5 -4.5h-123q-18 0 -27.5 5t-9.5 27z" />
<glyph unicode="&#xa7;" horiz-adv-x="1142" d="M137 760q0 76 45 146.5t111 117.5q-29 37 -46.5 83t-17.5 91q0 61 23.5 117.5t72 99.5t122 68.5t176.5 25.5q72 0 154.5 -14t142.5 -45q27 -16 12 -41l-43 -90q-4 -10 -11.5 -15.5t-25.5 3.5q-41 18 -99.5 31.5t-113.5 13.5q-117 0 -168 -36t-51 -95q0 -63 64.5 -127 t158.5 -142q86 -70 154.5 -128t117 -112.5t74 -107.5t25.5 -110q0 -72 -45 -141.5t-113 -116.5q31 -41 52.5 -91.5t21.5 -97.5q0 -59 -28 -115.5t-82 -99.5t-134 -68.5t-182 -25.5q-72 0 -151 14.5t-138 44.5q-27 16 -12 41l43 90q4 10 11 15.5t26 -2.5q41 -18 99 -31.5 t114 -13.5q117 0 170 44t53 103q0 51 -53.5 111.5t-141.5 128.5q-74 57 -144.5 115.5t-123.5 117.5t-86 119.5t-33 124.5zM334 768q0 -33 15.5 -63.5t49 -67.5t86 -82t125.5 -109q29 -27 72 -61.5t66 -48.5q29 23 49 57.5t20 69.5q0 43 -17.5 77.5t-51 71.5t-84.5 81.5 t-119 105.5q-41 35 -76 63.5t-51 48.5q-35 -23 -59.5 -60.5t-24.5 -82.5z" />
<glyph unicode="&#xa8;" horiz-adv-x="1173" d="M279 1372q0 23 10 44.5t27.5 39t39 27.5t45.5 10q47 0 85 -37t38 -84t-37.5 -84t-85.5 -37q-25 0 -46 10.5t-38.5 27t-27.5 39t-10 44.5zM655 1372q0 23 10.5 44.5t28 39t39 27.5t45.5 10q47 0 85 -37t38 -84t-37 -84t-84 -37q-49 0 -87 37t-38 84z" />
<glyph unicode="&#xa9;" horiz-adv-x="1693" d="M113 717q0 158 56 293t155.5 234t234.5 155.5t293 56.5t293 -56.5t234.5 -155.5t155.5 -234t56 -293t-56 -293t-155.5 -234.5t-234.5 -156t-293 -56.5t-293 56.5t-234.5 156t-155.5 234.5t-56 293zM225 717q0 -137 48.5 -254t132 -201t198.5 -132t248 -48t247.5 48 t198.5 132t132.5 201t48.5 254t-48.5 253.5t-132.5 200.5t-198.5 132.5t-247.5 48.5t-248 -48.5t-198.5 -132.5t-132 -200.5t-48.5 -253.5zM449 702q0 111 28.5 201t81.5 154.5t128 100.5t167 36q90 0 161.5 -29.5t123.5 -91.5q4 -8 7 -17t-13 -24l-68 -61q-18 -12 -41 10 q-33 35 -73 53.5t-95 18.5q-127 0 -191.5 -96.5t-64.5 -254.5q0 -156 64.5 -252t189.5 -96q57 0 99 20.5t75 55.5q18 23 37 6l72 -57q16 -12 12 -21.5t-8 -15.5q-51 -61 -119 -96t-168 -35q-96 0 -171 37t-127 101.5t-79.5 154.5t-27.5 198z" />
<glyph unicode="&#xaa;" horiz-adv-x="770" d="M55 766q0 45 16.5 90t53.5 80t98.5 57.5t153.5 22.5h141v10q0 43 -26.5 75t-112.5 32q-47 0 -101.5 -7.5t-84.5 -17.5q-23 -4 -33 -3t-15 17l-20 76q-4 16 0 24.5t22 16.5q53 20 125 28.5t131 8.5q147 0 215 -64.5t68 -181.5v-399q0 -39 -33 -51q-63 -29 -139 -38.5 t-143 -9.5q-94 0 -155.5 19.5t-96.5 51.5t-49.5 74t-14.5 89zM223 766q0 -55 41 -74.5t107 -19.5q20 0 62 2t83 14v184h-131q-23 0 -50.5 -2t-52 -13t-42 -32.5t-17.5 -58.5z" />
<glyph unicode="&#xab;" horiz-adv-x="1009" d="M123 500q0 29 12 52t23 40l190 313q12 20 26.5 31.5t49.5 11.5h115q23 0 29.5 -14t-3.5 -31l-241 -407l247 -394q12 -23 4 -34t-30 -11h-119q-35 0 -50.5 11.5t-25.5 31.5l-196 316q-10 16 -20.5 40.5t-10.5 43.5zM471 500q0 29 12.5 52t22.5 40l190 313q12 20 26.5 31.5 t49.5 11.5h115q23 0 30 -14t-4 -31l-241 -407l248 -394q12 -23 3.5 -34t-30.5 -11h-119q-35 0 -50 11.5t-26 31.5l-196 316q-10 16 -20.5 40.5t-10.5 43.5z" />
<glyph unicode="&#xac;" d="M106 645v121q0 18 5.5 27.5t27.5 9.5h940q23 0 28 -9.5t5 -27.5v-539q0 -23 -8 -27.5t-29 -4.5h-127q-18 0 -27.5 5t-9.5 27v381h-772q-23 0 -28 8.5t-5 28.5z" />
<glyph unicode="&#xad;" horiz-adv-x="747" d="M102 512v156q0 18 5.5 27.5t27.5 9.5h477q23 0 28 -9.5t5 -27.5v-156q0 -20 -5 -28.5t-28 -8.5h-477q-23 0 -28 8.5t-5 28.5z" />
<glyph unicode="&#xae;" horiz-adv-x="1134" d="M102 979q0 100 36 186t98.5 149.5t147.5 100.5t183 37t183.5 -37t148 -100.5t98 -149.5t35.5 -186q0 -98 -37 -184t-99 -149.5t-147 -99.5t-182 -36q-98 0 -183 36t-147.5 99.5t-98.5 149.5t-36 184zM190 979q0 -80 29 -150.5t79 -123t119.5 -82t149.5 -29.5t148.5 29.5 t119 82t79 123t28.5 150.5q0 82 -28.5 153.5t-79 124t-119 82t-148.5 29.5t-149.5 -29.5t-119.5 -82t-79 -124t-29 -153.5zM371 723v489q0 49 47 50h180q78 0 126 -45.5t48 -118.5q0 -43 -22.5 -79t-57.5 -58q31 -12 43.5 -34t18.5 -46l43 -154q4 -4 1 -14.5t-20 -10.5h-57 q-18 0 -21 17l-43 145q-10 41 -33.5 55.5t-60.5 14.5h-96v-211q0 -14 -5 -17.5t-18 -3.5h-55q-10 0 -14 3.5t-4 17.5zM467 1016h117q51 0 72.5 24.5t21.5 53.5q0 25 -17.5 52.5t-70.5 27.5h-123v-158z" />
<glyph unicode="&#xaf;" horiz-adv-x="686" d="M61 1221v86q0 18 5.5 27t27.5 9h498q23 0 28 -9t5 -27v-86q0 -20 -5.5 -28.5t-27.5 -8.5h-498q-23 0 -28 8t-5 29z" />
<glyph unicode="&#xb0;" horiz-adv-x="763" d="M92 1151q0 63 22.5 115.5t61.5 90.5t92.5 59.5t114.5 21.5t114.5 -21.5t92.5 -59.5t60.5 -90.5t21.5 -115.5t-22.5 -116.5t-61.5 -91.5t-92.5 -58.5t-114.5 -20.5t-114.5 20.5t-91.5 58.5t-60.5 91t-22.5 117zM213 1151q0 -76 49 -127t121 -51q74 0 123 51t49 127 q0 74 -49 125t-123 51q-72 0 -121 -51t-49 -125z" />
<glyph unicode="&#xb1;" d="M102 29v133q0 16 5.5 23.5t27.5 7.5h940q23 0 28 -7.5t5 -23.5v-133q0 -16 -5 -23.5t-28 -7.5h-940q-23 0 -28 7t-5 24zM111 727v121q0 18 5 27.5t27 9.5h371v379q0 23 9 27.5t28 4.5h127q20 0 28.5 -5t8.5 -27v-379h368q23 0 28 -9.5t5 -27.5v-121q0 -20 -5 -28.5 t-28 -8.5h-368v-381q0 -23 -8.5 -28t-28.5 -5h-127q-18 0 -27.5 5.5t-9.5 27.5v381h-371q-23 0 -27.5 8.5t-4.5 28.5z" />
<glyph unicode="&#xb2;" horiz-adv-x="792" d="M61 840q0 41 30 97t89 114q53 53 109.5 89t93.5 58q78 43 109.5 72.5t31.5 66.5q0 90 -149 90q-47 0 -93 -16t-89 -43q-16 -10 -32 -15t-28 15l-41 68q-16 29 14 51q57 37 130 61.5t147 24.5q61 0 117.5 -14.5t99.5 -42t68.5 -71.5t25.5 -102q0 -90 -63.5 -153.5 t-159.5 -116.5q-66 -35 -129 -86t-94 -113h414q29 0 31.5 -9t2.5 -25v-74q0 -12 -3 -23.5t-31 -11.5h-478q-72 0 -97.5 25.5t-25.5 83.5z" />
<glyph unicode="&#xb3;" horiz-adv-x="792" d="M43 846l45 69q10 12 20.5 12.5t30.5 -9.5q43 -23 98.5 -38.5t112.5 -15.5q94 0 133 39t39 90q0 41 -32.5 77t-124.5 36h-48q-23 0 -36 6t-13 39v35q0 29 11.5 39t35.5 10h39q72 0 111 28.5t39 77.5q0 47 -46 66.5t-96 19.5q-53 0 -102 -13t-88 -34q-23 -10 -35 -13 t-22 13l-39 70q-8 12 -7 22.5t17 22.5q63 43 144 61.5t159 18.5q61 0 112.5 -14.5t90.5 -43t60.5 -69.5t21.5 -94q0 -57 -28 -103.5t-75 -72.5v-7q59 -20 90 -71t31 -117q0 -113 -89 -188.5t-245 -75.5q-78 0 -160.5 17.5t-144.5 64.5q-29 20 -10 45z" />
<glyph unicode="&#xb4;" horiz-adv-x="989" d="M419 1223.5q-3 7.5 7 27.5l135 324q4 10 13.5 17t29.5 3l158 -43q16 -4 19 -13t-5 -19l-225 -314q-12 -16 -21.5 -19t-25.5 1l-66 24q-16 4 -19 11.5z" />
<glyph unicode="&#xb6;" horiz-adv-x="1062" d="M117 1057q0 76 28.5 145.5t79.5 120.5t121 82t152 31h182q20 0 20 -21v-713q0 -23 -20 -22h-182q-84 0 -154 28.5t-121 80t-78.5 120t-27.5 148.5zM535 -188q-2 10 3 18t15 10q82 10 132 30.5t78 53.5t38 78t10 102v1311q0 10 7 15.5t18 5.5h104q23 0 23 -21v-1309 q0 -92 -17.5 -165.5t-62.5 -126t-122 -84t-196 -37.5q-8 0 -14 3t-8 17z" />
<glyph unicode="&#xb7;" horiz-adv-x="548" d="M109 612q0 68 46 115t113 47q72 0 118 -46t46 -116q0 -68 -47 -114.5t-117 -46.5q-68 0 -113.5 46t-45.5 115z" />
<glyph unicode="&#xb8;" horiz-adv-x="1007" d="M367 -371l16 43q8 16 14 17.5t21 -2.5q59 -20 119 -21q100 0 100 66q0 35 -35 49t-76 14h-41t-20 8q-10 10 -8 22.5t6 29.5l59 170q4 14 21 14h71q12 0 12.5 -6t-1.5 -10l-47 -138q57 -4 96 -18t61.5 -35.5t32.5 -49.5t10 -54q0 -29 -13 -58.5t-40 -54.5t-68 -40t-96 -15 q-51 0 -100 9t-80 25q-25 8 -14 35z" />
<glyph unicode="&#xb9;" horiz-adv-x="792" d="M147 768v72q0 23 6.5 28.5t32.5 5.5h133v531l-131 -23q-14 -4 -24 1.5t-10 25.5v66q0 20 4 29t26 16l201 51q39 10 69.5 -1t30.5 -52v-644h138q29 0 35 -6t6 -28v-72q0 -23 -6.5 -30t-34.5 -7h-437q-27 0 -33 7t-6 30z" />
<glyph unicode="&#xba;" horiz-adv-x="794" d="M55 903q0 90 25.5 160t72 117t110 71.5t136.5 24.5q166 0 253 -97.5t87 -271.5q0 -180 -87 -277.5t-257 -97.5q-166 0 -253 93.5t-87 277.5zM223 907q0 -104 36 -169.5t136 -65.5q51 0 85 19.5t54.5 51t28.5 73.5t8 87t-7 88t-25.5 75t-52 51.5t-85.5 19.5 q-92 0 -135 -65.5t-43 -164.5z" />
<glyph unicode="&#xbb;" horiz-adv-x="1009" d="M86 68.5q-8 11.5 4 33.5l248 394l-242 407q-10 16 -3 30.5t30 14.5h115q35 0 49 -11t26 -32l191 -313q10 -16 22.5 -40t12.5 -52q0 -18 -10.5 -43t-20.5 -41l-197 -316q-10 -20 -25.5 -31.5t-49.5 -11.5h-119q-23 0 -31 11.5zM434 68.5q-8 11.5 4 33.5l248 394l-242 407 q-10 16 -2.5 30.5t29.5 14.5h115q35 0 49 -11t27 -32l190 -313q10 -16 22.5 -40t12.5 -52q0 -18 -10.5 -43t-20.5 -41l-197 -316q-10 -20 -25.5 -31.5t-49.5 -11.5h-119q-23 0 -31 11.5z" />
<glyph unicode="&#xbc;" horiz-adv-x="1843" d="M186 584v71q0 23 6.5 29t32.5 6h133v531l-131 -23q-14 -4 -24 1t-10 26v65q0 20 4 29.5t26 15.5l201 51q39 10 69.5 -1t30.5 -52v-643h138q29 0 34.5 -6t5.5 -29v-71q0 -23 -6 -30t-34 -7h-437q-27 0 -33 7t-6 30zM439.5 -38q-7.5 7 2.5 26l838 1401q10 18 18.5 25 t26.5 7h80q10 0 18.5 -7t-2.5 -25l-837 -1401q-10 -18 -20.5 -25.5t-28.5 -7.5h-72q-16 0 -23.5 7zM944 244v26q0 27 8.5 43.5t26.5 38.5l367 434q16 23 37.5 41.5t56.5 18.5h49q45 0 63.5 -16.5t18.5 -61.5v-455h78q27 0 30.5 -11t3.5 -30v-57q0 -16 -4 -27.5t-30 -11.5 h-78v-141q0 -25 -10.5 -30t-32.5 -5h-82q-23 0 -32 5t-9 30v139h-379q-29 0 -55.5 11.5t-26.5 58.5zM1161 322l2 -9h242l-2 295l-6 2z" />
<glyph unicode="&#xbd;" horiz-adv-x="1843" d="M176 584v71q0 23 6 29t33 6h133v531l-131 -23q-14 -4 -24.5 1t-10.5 26v65q0 20 4 29.5t27 15.5l201 51q39 10 69.5 -1t30.5 -52v-643h137q29 0 35 -6t6 -29v-71q0 -23 -6 -30t-35 -7h-436q-27 0 -33 7t-6 30zM417 -38q-7 7 3 26l837 1401q10 18 18.5 25t27.5 7h79 q10 0 18.5 -7t-1.5 -25l-838 -1401q-10 -18 -20.5 -25.5t-28.5 -7.5h-72q-16 0 -23 7zM1085 109q0 41 30 97t89 113q53 53 109.5 89t93.5 59q78 43 109.5 72.5t31.5 66.5q0 90 -149 90q-47 0 -93 -16t-89 -43q-16 -10 -32 -15.5t-28 15.5l-41 68q-16 29 14 51 q57 37 130 61.5t147 24.5q61 0 117.5 -14.5t99.5 -42t68.5 -71.5t25.5 -102q0 -90 -63.5 -153.5t-159.5 -116.5q-66 -35 -129 -86t-94 -113h414q29 0 31.5 -9t2.5 -25v-74q0 -12 -3 -23.5t-31 -11.5h-478q-72 0 -97.5 25.5t-25.5 83.5z" />
<glyph unicode="&#xbe;" horiz-adv-x="1843" d="M100 662l45 69q10 12 20.5 12t31.5 -10q43 -23 98 -38t113 -15q94 0 133 39t39 90q0 41 -33 77t-125 36h-47q-23 0 -36 6t-13 39v34q0 29 11 39.5t36 10.5h39q72 0 110.5 28.5t38.5 77.5q0 47 -46 66.5t-95 19.5q-53 0 -102.5 -13t-88.5 -34q-23 -10 -35 -13t-22 13 l-39 70q-8 12 -7 22t17 23q63 43 144.5 61.5t158.5 18.5q61 0 112.5 -14.5t90.5 -43t60.5 -69.5t21.5 -95q0 -57 -27.5 -103t-74.5 -73v-6q59 -20 90 -71.5t31 -116.5q0 -113 -89.5 -188.5t-244.5 -75.5q-78 0 -161 17t-144 64q-29 20 -11 46zM435.5 -38q-7.5 7 2.5 26 l838 1401q10 18 18.5 25t26.5 7h80q10 0 18 -7t-2 -25l-837 -1401q-10 -18 -20.5 -25.5t-29.5 -7.5h-71q-16 0 -23.5 7zM975 244v26q0 27 8 43.5t27 38.5l366 434q16 23 38 41.5t56 18.5h50q45 0 63.5 -16.5t18.5 -61.5v-455h77q27 0 31 -11t4 -30v-57q0 -16 -4 -27.5 t-31 -11.5h-77v-141q0 -25 -10.5 -30t-32.5 -5h-82q-23 0 -32 5t-9 30v139h-379q-29 0 -55.5 11.5t-26.5 58.5zM1192 322l2 -9h242l-2 295l-7 2z" />
<glyph unicode="&#xbf;" horiz-adv-x="1081" d="M104 -35q0 63 21.5 117.5t57.5 100.5t80 86t87 77q37 31 70 60.5t58.5 61.5t41 64.5t15.5 69.5v39q0 12 6 21.5t24 9.5h142q31 0 30 -29v-51q0 -70 -24.5 -124t-63.5 -98t-87 -82t-93 -75q-63 -53 -109.5 -110.5t-46.5 -139.5q0 -25 9.5 -55.5t36 -57t73.5 -45t125 -18.5 t159 26.5t150 80.5q14 10 27.5 11t24.5 -14l63 -98q16 -27 -10 -47q-45 -37 -99.5 -63.5t-110.5 -44t-108.5 -26.5t-95.5 -9q-98 0 -181 22.5t-143.5 67.5t-94.5 113.5t-34 158.5zM481 918q0 66 45 111.5t113 45.5q66 0 112 -45t46 -112q0 -66 -49.5 -112t-114.5 -46 q-18 0 -44 7t-50.5 24.5t-41 48.5t-16.5 78z" />
<glyph unicode="&#xc0;" horiz-adv-x="1288" d="M34.5 13.5q-5.5 13.5 0.5 29.5l454 1305q18 53 41 70.5t76 19.5h68q61 0 83.5 -19.5t39.5 -70.5l456 -1305q6 -16 0 -29.5t-26 -13.5h-154q-23 0 -35 4t-20 29l-96 291h-555l-97 -291q-6 -16 -16 -24.5t-33 -8.5h-158q-23 0 -28.5 13.5zM292 1696.5q-3 9.5 9 21.5l94 131 q14 16 24.5 14.5t20.5 -10.5l295 -217q16 -12 17.5 -20t-9.5 -21l-38 -59q-10 -10 -20.5 -13t-31.5 5l-348 155q-10 4 -13 13.5zM422 510h438l-125 395l-92 291h-10l-86 -281z" />
<glyph unicode="&#xc1;" horiz-adv-x="1288" d="M34.5 13.5q-5.5 13.5 0.5 29.5l454 1305q18 53 41 70.5t76 19.5h68q61 0 83.5 -19.5t39.5 -70.5l456 -1305q6 -16 0 -29.5t-26 -13.5h-154q-23 0 -35 4t-20 29l-96 291h-555l-97 -291q-6 -16 -16 -24.5t-33 -8.5h-158q-23 0 -28.5 13.5zM422 510h438l-125 395l-92 291 h-10l-86 -281zM531.5 1615.5q0.5 8.5 17.5 20.5l295 217q10 8 20 10.5t25 -14.5l94 -131q12 -12 9 -21t-13 -14l-348 -155q-20 -8 -30.5 -5t-20.5 13l-39 59q-10 12 -9.5 20.5z" />
<glyph unicode="&#xc2;" horiz-adv-x="1288" d="M34.5 13.5q-5.5 13.5 0.5 29.5l454 1305q18 53 41 70.5t76 19.5h68q61 0 83.5 -19.5t39.5 -70.5l456 -1305q6 -16 0 -29.5t-26 -13.5h-154q-23 0 -35 4t-20 29l-96 291h-555l-97 -291q-6 -16 -16 -24.5t-33 -8.5h-158q-23 0 -28.5 13.5zM287 1591q-2 8 8 17l260 209 q45 37 84 36q14 0 36.5 -5t53.5 -31l250 -209q25 -18 4 -43l-33 -39q-8 -10 -18 -7t-27 11l-268 127l-266 -131q-12 -6 -20.5 -5t-18.5 11l-37 43q-6 8 -8 16zM422 510h438l-125 395l-92 291h-10l-86 -281z" />
<glyph unicode="&#xc3;" horiz-adv-x="1288" d="M34.5 13.5q-5.5 13.5 0.5 29.5l454 1305q18 53 41 70.5t76 19.5h68q61 0 83.5 -19.5t39.5 -70.5l456 -1305q6 -16 0 -29.5t-26 -13.5h-154q-23 0 -35 4t-20 29l-96 291h-555l-97 -291q-6 -16 -16 -24.5t-33 -8.5h-158q-23 0 -28.5 13.5zM287 1589q-6 6 2 23q35 61 88 106 t133 45q37 0 69.5 -12t64.5 -27.5t61.5 -28t58.5 -12.5q31 0 54.5 16.5t33.5 41.5q8 16 15 18t24 -2l80 -22q35 -6 24 -31q-35 -76 -84 -120t-133 -44q-37 0 -70.5 11.5t-67.5 24.5t-66.5 25.5t-67.5 12.5q-27 0 -48.5 -16.5t-33.5 -38.5q-6 -10 -15.5 -15.5t-27.5 2.5 l-70 31q-18 6 -24 12zM422 510h438l-125 395l-92 291h-10l-86 -281z" />
<glyph unicode="&#xc4;" horiz-adv-x="1288" d="M34.5 13.5q-5.5 13.5 0.5 29.5l454 1305q18 53 41 70.5t76 19.5h68q61 0 83.5 -19.5t39.5 -70.5l456 -1305q6 -16 0 -29.5t-26 -13.5h-154q-23 0 -35 4t-20 29l-96 291h-555l-97 -291q-6 -16 -16 -24.5t-33 -8.5h-158q-23 0 -28.5 13.5zM330 1642q0 23 10 44.5t27.5 39 t39 27.5t46.5 10q47 0 84.5 -37t37.5 -84t-37.5 -83.5t-84.5 -36.5q-25 0 -46.5 10t-39 26.5t-27.5 39t-10 44.5zM422 510h438l-125 395l-92 291h-10l-86 -281zM707 1642q0 23 10 44.5t27.5 39t39 27.5t45.5 10q47 0 85 -37t38 -84t-36.5 -83.5t-84.5 -36.5 q-49 0 -86.5 36.5t-37.5 83.5z" />
<glyph unicode="&#xc5;" horiz-adv-x="1288" d="M34.5 13.5q-5.5 13.5 0.5 29.5l454 1305q18 53 41 70.5t76 19.5h68q61 0 83.5 -19.5t39.5 -70.5l456 -1305q6 -16 0 -29.5t-26 -13.5h-154q-23 0 -35 4t-20 29l-96 291h-555l-97 -291q-6 -16 -16 -24.5t-33 -8.5h-158q-23 0 -28.5 13.5zM422 510h438l-125 395l-92 291 h-10l-86 -281zM436 1675q0 86 60.5 142.5t148.5 56.5t148.5 -56.5t60.5 -142.5t-60.5 -142t-148.5 -56t-148.5 55t-60.5 143zM539 1675q0 -47 29.5 -76.5t76.5 -29.5t77 29.5t30 76.5t-30 77t-77 30t-76.5 -30t-29.5 -77z" />
<glyph unicode="&#xc6;" horiz-adv-x="1767" d="M39 29l407 1185q14 41 37 81t63 71t99.5 50.5t147.5 19.5h843q23 0 28 -9.5t5 -27.5v-117q0 -20 -5 -27.5t-28 -7.5h-501q-84 0 -121 -38t-37 -115v-242h598q23 0 28 -8t5 -29v-108q0 -18 -5.5 -27.5t-27.5 -9.5h-598v-326q0 -66 36 -108.5t122 -42.5h516q23 0 27.5 -8.5 t4.5 -28.5v-119q0 -18 -5 -27.5t-27 -9.5h-533q-180 0 -260 85t-90 243h-408l-100 -301q-8 -27 -39 -27h-164q-29 0 -18 29zM410 498h358v579q0 55 6 104.5t23 73.5q-88 0 -124 -24.5t-52 -71.5l-74 -225z" />
<glyph unicode="&#xc7;" horiz-adv-x="1241" d="M113 696q0 172 46 311.5t129 239t200.5 153.5t259.5 54q86 0 181 -15.5t199 -68.5q12 -6 17.5 -17.5t-6.5 -33.5l-52 -107q-8 -14 -15 -19t-25 3q-63 27 -137 43t-154 16q-113 0 -194 -48t-132 -127t-75.5 -179t-24.5 -205q0 -104 20.5 -198.5t70.5 -166t134 -113.5 t213 -42q90 0 169 20.5t146 49.5q27 10 38.5 1t15.5 -20l43 -98q14 -29 9 -38t-20 -19q-94 -57 -208.5 -74.5t-217.5 -20.5l-30 -92q57 -4 96 -18t61.5 -35.5t32.5 -49.5t10 -54q0 -29 -13 -58.5t-39.5 -54.5t-67.5 -40t-97 -15q-51 0 -100 9t-80 25q-25 8 -14 35l16 43 q8 16 14.5 17.5t20.5 -2.5q59 -20 119 -21q100 0 100 66q0 35 -35 49t-75 14h-41.5t-20.5 8q-10 10 -8 22.5t6 29.5l43 127q-250 25 -389 198.5t-139 515.5z" />
<glyph unicode="&#xc8;" horiz-adv-x="1204" d="M154 360v713q0 72 19.5 137.5t62.5 115.5t110.5 80t163.5 30h561q29 0 36 -12.5t7 -34.5v-99q0 -27 -7 -36t-36 -9h-561q-78 0 -111.5 -33.5t-33.5 -107.5v-252h639q27 0 33.5 -10.5t6.5 -36.5v-86q0 -23 -7 -35t-33 -12h-639v-340q0 -61 33.5 -100t111.5 -39h569 q29 0 36 -10.5t7 -37.5v-98q0 -23 -7 -35t-36 -12h-569q-104 0 -173 29.5t-110 79t-57 115t-16 136.5zM365.5 1696.5q-3.5 9.5 9.5 21.5l94 131q14 16 24.5 14.5t20.5 -10.5l295 -217q16 -12 17 -20t-9 -21l-39 -59q-10 -10 -20 -13t-31 5l-348 155q-10 4 -13.5 13.5z" />
<glyph unicode="&#xc9;" horiz-adv-x="1204" d="M154 360v713q0 72 19.5 137.5t62.5 115.5t110.5 80t163.5 30h561q29 0 36 -12.5t7 -34.5v-99q0 -27 -7 -36t-36 -9h-561q-78 0 -111.5 -33.5t-33.5 -107.5v-252h639q27 0 33.5 -10.5t6.5 -36.5v-86q0 -23 -7 -35t-33 -12h-639v-340q0 -61 33.5 -100t111.5 -39h569 q29 0 36 -10.5t7 -37.5v-98q0 -23 -7 -35t-36 -12h-569q-104 0 -173 29.5t-110 79t-57 115t-16 136.5zM542 1615.5q1 8.5 17 20.5l295 217q10 8 20.5 10.5t24.5 -14.5l94 -131q12 -12 9 -21t-13 -14l-348 -155q-20 -8 -30.5 -5t-20.5 13l-39 59q-10 12 -9 20.5z" />
<glyph unicode="&#xca;" horiz-adv-x="1204" d="M154 360v713q0 72 19.5 137.5t62.5 115.5t110.5 80t163.5 30h561q29 0 36 -12.5t7 -34.5v-99q0 -27 -7 -36t-36 -9h-561q-78 0 -111.5 -33.5t-33.5 -107.5v-252h639q27 0 33.5 -10.5t6.5 -36.5v-86q0 -23 -7 -35t-33 -12h-639v-340q0 -61 33.5 -100t111.5 -39h569 q29 0 36 -10.5t7 -37.5v-98q0 -23 -7 -35t-36 -12h-569q-104 0 -173 29.5t-110 79t-57 115t-16 136.5zM326 1591q-2 8 8 17l260 209q45 37 84 36q14 0 36.5 -5t53.5 -31l250 -209q25 -18 4 -43l-33 -39q-8 -10 -18 -7t-27 11l-268 127l-266 -131q-12 -6 -20.5 -5t-18.5 11 l-37 43q-6 8 -8 16z" />
<glyph unicode="&#xcb;" horiz-adv-x="1204" d="M154 360v713q0 72 19.5 137.5t62.5 115.5t110.5 80t163.5 30h561q29 0 36 -12.5t7 -34.5v-99q0 -27 -7 -36t-36 -9h-561q-78 0 -111.5 -33.5t-33.5 -107.5v-252h639q27 0 33.5 -10.5t6.5 -36.5v-86q0 -23 -7 -35t-33 -12h-639v-340q0 -61 33.5 -100t111.5 -39h569 q29 0 36 -10.5t7 -37.5v-98q0 -23 -7 -35t-36 -12h-569q-104 0 -173 29.5t-110 79t-57 115t-16 136.5zM371 1638q0 23 10 44.5t27.5 39t39 27.5t46.5 10q47 0 84.5 -37t37.5 -84t-37.5 -83.5t-84.5 -36.5q-25 0 -46.5 10t-39 26.5t-27.5 39t-10 44.5zM748 1638q0 23 10 44.5 t27.5 39t39 27.5t45.5 10q47 0 85 -37t38 -84t-36.5 -83.5t-84.5 -36.5q-49 0 -86.5 36.5t-37.5 83.5z" />
<glyph unicode="&#xcc;" horiz-adv-x="563" d="M-79 1696.5q-3 9.5 9 21.5l95 131q14 16 24 14.5t21 -10.5l295 -217q16 -12 17 -20t-9 -21l-39 -59q-10 -10 -20.5 -13t-30.5 5l-349 155q-10 4 -13 13.5zM176 43v1348q0 29 12.5 36t34.5 7h119q27 0 37 -7.5t10 -35.5v-1348q0 -29 -10 -36t-37 -7h-119q-23 0 -35 7 t-12 36z" />
<glyph unicode="&#xcd;" horiz-adv-x="563" d="M176 43v1348q0 29 12.5 36t34.5 7h119q27 0 37 -7.5t10 -35.5v-1348q0 -29 -10 -36t-37 -7h-119q-23 0 -35 7t-12 36zM212 1615.5q1 8.5 17 20.5l295 217q10 8 20.5 10.5t24.5 -14.5l95 -131q12 -12 9 -21t-14 -14l-348 -155q-20 -8 -30.5 -5t-20.5 13l-39 59 q-10 12 -9 20.5z" />
<glyph unicode="&#xce;" horiz-adv-x="563" d="M-65.5 1591q-2.5 8 8.5 17l260 209q45 37 84 36q14 0 36.5 -5t53.5 -31l250 -209q25 -18 4 -43l-33 -39q-8 -10 -18.5 -7t-26.5 11l-268 127l-267 -131q-12 -6 -20 -5t-18 11l-37 43q-6 8 -8.5 16zM176 43v1348q0 29 12.5 36t34.5 7h119q27 0 37 -7.5t10 -35.5v-1348 q0 -29 -10 -36t-37 -7h-119q-23 0 -35 7t-12 36z" />
<glyph unicode="&#xcf;" horiz-adv-x="563" d="M-25 1649q0 23 10.5 44t28 38.5t39 27.5t45.5 10q47 0 85 -36.5t38 -83.5t-38 -84t-85 -37q-25 0 -46 10t-38.5 26.5t-28 39t-10.5 45.5zM176 43v1348q0 29 12.5 36t34.5 7h119q27 0 37 -7.5t10 -35.5v-1348q0 -29 -10 -36t-37 -7h-119q-23 0 -35 7t-12 36zM352 1649 q0 23 10.5 44t28 38.5t39 27.5t45.5 10q47 0 85 -36.5t38 -83.5t-37 -84t-84 -37q-49 0 -87 37t-38 84z" />
<glyph unicode="&#xd0;" horiz-adv-x="1396" d="M20 682v94q0 18 5.5 27.5t27.5 9.5h101v512q0 59 25.5 85t84.5 26l375 2q160 0 279.5 -49.5t201.5 -142.5t123 -225t41 -294q0 -160 -37 -294t-113.5 -230.5t-194.5 -149.5t-280 -53h-395q-59 0 -84.5 25.5t-25.5 85.5v534h-101q-23 0 -28 8.5t-5 28.5zM371 193h262 q125 0 208 39.5t133 110.5t70.5 168t20.5 212q0 109 -21.5 204t-71.5 165.5t-135 111.5t-210 41h-256v-432h303q23 0 28 -9t5 -28v-94q0 -20 -5.5 -28.5t-27.5 -8.5h-303v-452z" />
<glyph unicode="&#xd1;" horiz-adv-x="1433" d="M154 43v1280q0 57 23.5 85t86.5 28h62q49 0 71.5 -20.5t51.5 -67.5l444 -744l174 -299h6v1088q0 29 12.5 36t34.5 7h113q27 0 37 -7.5t10 -35.5v-1280q0 -57 -23.5 -85t-87.5 -28h-61q-49 0 -71.5 20.5t-51.5 67.5l-450 752l-168 290h-7v-1087q0 -29 -10 -36t-37 -7h-112 q-23 0 -35 7t-12 36zM399.5 1611.5q-6.5 6.5 1.5 22.5q35 61 88.5 106.5t133.5 45.5q37 0 69.5 -12.5t64 -27.5t61.5 -27.5t59 -12.5q31 0 54 16.5t34 40.5q8 16 15 18.5t24 -1.5l79 -23q35 -6 25 -31q-35 -76 -84 -119.5t-133 -43.5q-37 0 -71 11t-67.5 24.5t-66.5 25.5 t-68 12q-27 0 -48 -16t-33 -39q-6 -10 -15.5 -15t-27.5 3l-70 30q-18 6 -24.5 12.5z" />
<glyph unicode="&#xd2;" horiz-adv-x="1458" d="M113 715q0 178 47 316t130 232.5t195.5 143.5t243.5 49q152 0 266.5 -50t192.5 -145.5t118 -230.5t40 -307q0 -360 -158 -553t-465 -193q-301 0 -455.5 185.5t-154.5 552.5zM326 723q0 -125 19.5 -227.5t65.5 -175t122.5 -112.5t191.5 -40q117 0 194.5 46t125 122 t66.5 174.5t19 204.5t-16 206.5t-59 176.5t-120 122t-200 46q-104 0 -181 -43t-127 -117t-75.5 -173t-25.5 -210zM413 1696.5q-3 9.5 9 21.5l94 131q14 16 24.5 14.5t20.5 -10.5l295 -217q16 -12 17 -20t-9 -21l-39 -59q-10 -10 -20 -13t-31 5l-348 155q-10 4 -13 13.5z" />
<glyph unicode="&#xd3;" horiz-adv-x="1458" d="M113 715q0 178 47 316t130 232.5t195.5 143.5t243.5 49q152 0 266.5 -50t192.5 -145.5t118 -230.5t40 -307q0 -360 -158 -553t-465 -193q-301 0 -455.5 185.5t-154.5 552.5zM326 723q0 -125 19.5 -227.5t65.5 -175t122.5 -112.5t191.5 -40q117 0 194.5 46t125 122 t66.5 174.5t19 204.5t-16 206.5t-59 176.5t-120 122t-200 46q-104 0 -181 -43t-127 -117t-75.5 -173t-25.5 -210zM628 1615.5q1 8.5 17 20.5l295 217q10 8 20.5 10.5t24.5 -14.5l94 -131q12 -12 9 -21t-13 -14l-348 -155q-20 -8 -30.5 -5t-20.5 13l-39 59q-10 12 -9 20.5z " />
<glyph unicode="&#xd4;" horiz-adv-x="1458" d="M113 715q0 178 47 316t130 232.5t195.5 143.5t243.5 49q152 0 266.5 -50t192.5 -145.5t118 -230.5t40 -307q0 -360 -158 -553t-465 -193q-301 0 -455.5 185.5t-154.5 552.5zM326 723q0 -125 19.5 -227.5t65.5 -175t122.5 -112.5t191.5 -40q117 0 194.5 46t125 122 t66.5 174.5t19 204.5t-16 206.5t-59 176.5t-120 122t-200 46q-104 0 -181 -43t-127 -117t-75.5 -173t-25.5 -210zM379 1591q-2 8 8 17l260 209q45 37 84 36q14 0 37 -5t53 -31l250 -209q25 -18 4 -43l-33 -39q-8 -10 -18 -7t-27 11l-268 127l-266 -131q-12 -6 -20.5 -5 t-18.5 11l-37 43q-6 8 -8 16z" />
<glyph unicode="&#xd5;" horiz-adv-x="1458" d="M113 715q0 178 47 316t130 232.5t195.5 143.5t243.5 49q152 0 266.5 -50t192.5 -145.5t118 -230.5t40 -307q0 -360 -158 -553t-465 -193q-301 0 -455.5 185.5t-154.5 552.5zM326 723q0 -125 19.5 -227.5t65.5 -175t122.5 -112.5t191.5 -40q117 0 194.5 46t125 122 t66.5 174.5t19 204.5t-16 206.5t-59 176.5t-120 122t-200 46q-104 0 -181 -43t-127 -117t-75.5 -173t-25.5 -210zM383.5 1624q-6.5 6 1.5 23q35 61 88 106t133 45q37 0 70 -12t64.5 -27.5t61 -28t58.5 -12.5q31 0 54.5 16.5t33.5 41.5q8 16 15.5 18t23.5 -2l80 -23 q35 -6 25 -30q-35 -76 -84.5 -120t-133.5 -44q-37 0 -70.5 11t-67.5 24.5t-66.5 26t-67.5 12.5q-27 0 -48.5 -16.5t-33.5 -39.5q-6 -10 -15 -15t-28 3l-69 31q-18 6 -24.5 12z" />
<glyph unicode="&#xd6;" horiz-adv-x="1458" d="M113 715q0 178 47 316t130 232.5t195.5 143.5t243.5 49q152 0 266.5 -50t192.5 -145.5t118 -230.5t40 -307q0 -360 -158 -553t-465 -193q-301 0 -455.5 185.5t-154.5 552.5zM326 723q0 -125 19.5 -227.5t65.5 -175t122.5 -112.5t191.5 -40q117 0 194.5 46t125 122 t66.5 174.5t19 204.5t-16 206.5t-59 176.5t-120 122t-200 46q-104 0 -181 -43t-127 -117t-75.5 -173t-25.5 -210zM426 1659q0 23 10 44t27.5 38.5t39 28t46.5 10.5q47 0 85 -37t38 -84t-38 -84t-85 -37q-25 0 -46.5 10.5t-39 26.5t-27.5 38.5t-10 45.5zM803 1659q0 23 10 44 t27.5 38.5t39 28t46.5 10.5q47 0 85 -37t38 -84t-37 -84t-84 -37q-49 0 -87 37t-38 84z" />
<glyph unicode="&#xd7;" d="M130 352q-3 10 13 27l328 328l-319 319q-16 16 -14.5 25.5t16.5 23.5l86 86q12 12 22 15.5t27 -13.5l319 -319l326 325q16 16 26.5 13.5t22.5 -15.5l90 -90q14 -14 16.5 -23.5t-14.5 -25.5l-325 -326l319 -319q16 -16 13 -26.5t-17 -22.5l-84 -86q-14 -14 -23.5 -16.5 t-25.5 14.5l-320 317l-327 -325q-16 -16 -25.5 -14.5t-23.5 16.5l-91 90q-12 12 -15 22z" />
<glyph unicode="&#xd8;" horiz-adv-x="1458" d="M113 715q0 178 47 316t130 232.5t195.5 143.5t243.5 49q121 0 217 -32.5t170 -92.5l96 127q18 25 43 4l41 -28q10 -10 11.5 -16.5t-9.5 -22.5l-106 -140q154 -190 154 -532q0 -360 -158 -553t-465 -193q-250 0 -397 129l-82 -108q-10 -14 -19.5 -13t-19.5 9l-43 26 q-20 14 -2 41l92 123q-139 186 -139 531zM326 723q0 -109 14 -198t49 -160l608 806q-45 45 -109.5 70t-152.5 25q-104 0 -181 -43t-127 -117t-75.5 -173t-25.5 -210zM451 272q47 -51 116.5 -77.5t165.5 -26.5q117 0 192.5 46t122 122t64.5 174.5t18 204.5q0 102 -14 196.5 t-53 169.5z" />
<glyph unicode="&#xd9;" horiz-adv-x="1400" d="M152 1391q0 29 12 36t35 7h123q27 0 37 -7.5t10 -35.5v-760q0 -119 15 -206t59 -145.5t127 -87t218 -28.5q35 0 100.5 3t149.5 19v1205q0 29 12.5 36t34.5 7h123q27 0 33 -7.5t6 -35.5v-1192q0 -82 -35.5 -133.5t-132.5 -67.5q-78 -12 -157.5 -17.5t-145.5 -5.5 q-170 0 -288.5 33t-192.5 109t-107.5 200.5t-33.5 309.5zM409 1696.5q-3 9.5 9 21.5l94 131q14 16 24.5 14.5t20.5 -10.5l295 -217q16 -12 17 -20t-9 -21l-39 -59q-10 -10 -20 -13t-31 5l-348 155q-10 4 -13 13.5z" />
<glyph unicode="&#xda;" horiz-adv-x="1400" d="M152 1391q0 29 12 36t35 7h123q27 0 37 -7.5t10 -35.5v-760q0 -119 15 -206t59 -145.5t127 -87t218 -28.5q35 0 100.5 3t149.5 19v1205q0 29 12.5 36t34.5 7h123q27 0 33 -7.5t6 -35.5v-1192q0 -82 -35.5 -133.5t-132.5 -67.5q-78 -12 -157.5 -17.5t-145.5 -5.5 q-170 0 -288.5 33t-192.5 109t-107.5 200.5t-33.5 309.5zM577 1615.5q1 8.5 17 20.5l295 217q10 8 20.5 10.5t24.5 -14.5l94 -131q12 -12 9 -21t-13 -14l-348 -155q-20 -8 -30.5 -5t-20.5 13l-39 59q-10 12 -9 20.5z" />
<glyph unicode="&#xdb;" horiz-adv-x="1400" d="M152 1391q0 29 12 36t35 7h123q27 0 37 -7.5t10 -35.5v-760q0 -119 15 -206t59 -145.5t127 -87t218 -28.5q35 0 100.5 3t149.5 19v1205q0 29 12.5 36t34.5 7h123q27 0 33 -7.5t6 -35.5v-1192q0 -82 -35.5 -133.5t-132.5 -67.5q-78 -12 -157.5 -17.5t-145.5 -5.5 q-170 0 -288.5 33t-192.5 109t-107.5 200.5t-33.5 309.5zM354 1591q-2 8 8 17l261 209q45 37 84 36q14 0 36.5 -5t53.5 -31l250 -209q25 -18 4 -43l-33 -39q-8 -10 -18.5 -7t-26.5 11l-268 127l-267 -131q-12 -6 -20 -5t-19 11l-37 43q-6 8 -8 16z" />
<glyph unicode="&#xdc;" horiz-adv-x="1400" d="M152 1391q0 29 12 36t35 7h123q27 0 37 -7.5t10 -35.5v-760q0 -119 15 -206t59 -145.5t127 -87t218 -28.5q35 0 100.5 3t149.5 19v1205q0 29 12.5 36t34.5 7h123q27 0 33 -7.5t6 -35.5v-1192q0 -82 -35.5 -133.5t-132.5 -67.5q-78 -12 -157.5 -17.5t-145.5 -5.5 q-170 0 -288.5 33t-192.5 109t-107.5 200.5t-33.5 309.5zM393 1628q0 23 10.5 44.5t28 39t39 27.5t45.5 10q47 0 85 -37t38 -84t-38 -84t-85 -37q-25 0 -46 10.5t-38.5 27t-28 39t-10.5 44.5zM770 1628q0 23 10.5 44.5t27.5 39t38.5 27.5t46.5 10q47 0 85 -37t38 -84 t-37 -84t-84 -37q-49 0 -87 37t-38 84z" />
<glyph unicode="&#xdd;" horiz-adv-x="1183" d="M24 1427.5q3 8.5 17 8.5h174q16 0 25.5 -5.5t19.5 -23.5l174 -332l162 -321h8l170 336l166 317q16 29 45 29h162q12 0 15 -8.5t-1 -16.5l-461 -844v-534q0 -23 -7 -28t-27 -5h-136q-18 0 -27 5t-9 28v534l-469 844q-4 8 -1 16.5zM495 1615.5q1 8.5 17 20.5l295 217 q10 8 20.5 10.5t24.5 -14.5l94 -131q12 -12 9 -21t-13 -14l-348 -155q-20 -8 -30.5 -5t-20.5 13l-39 59q-10 12 -9 20.5z" />
<glyph unicode="&#xde;" horiz-adv-x="1255" d="M154 20v1381q0 23 9 28t27 5h142q20 0 28.5 -5.5t8.5 -27.5v-205h372q98 0 181.5 -30.5t142.5 -88t93 -136.5t34 -175q0 -55 -18.5 -132t-68.5 -146.5t-140.5 -117.5t-231.5 -48h-360l-2 -289q0 -33 -27 -33h-172l-10 6q-2 0 -2 1t-2 1zM373 508h323q145 0 211 67.5 t66 176.5q0 39 -12.5 83t-44 80.5t-86 61t-140.5 24.5h-317v-493z" />
<glyph unicode="&#xdf;" horiz-adv-x="1146" d="M135 1006q0 111 30 197.5t85 147t134 92.5t177 32q111 0 189.5 -32t128 -83t72 -117.5t22.5 -134.5q0 -33 -8.5 -73t-27.5 -78.5t-51 -72.5t-77 -53v-6q49 -12 94 -48t79 -87t53.5 -112.5t19.5 -128.5q0 -125 -43 -219.5t-115 -157t-167 -92t-202 -25.5q-16 0 -21 4 t-5 21v102q0 14 4 21.5t20 7.5q143 0 234.5 82.5t91.5 238.5q0 51 -13.5 103.5t-45 95.5t-85 69.5t-135.5 26.5q-33 0 -51 13.5t-18 47.5v35q0 68 63 68q57 0 97.5 17.5t65 45t35.5 64.5t11 78q0 35 -11 72.5t-35.5 68.5t-65.5 51.5t-103 20.5q-66 0 -108.5 -24.5 t-68.5 -64.5t-36 -88.5t-10 -93.5v-1005q0 -23 -8 -28t-29 -5h-127q-18 0 -27.5 5t-9.5 28z" />
<glyph unicode="&#xe0;" horiz-adv-x="1116" d="M92 319q0 68 22.5 133.5t75 118t140.5 84t217 31.5h233v37q0 45 -9 82t-34.5 63.5t-70.5 41t-117 14.5q-37 0 -77 -4.5t-78 -10.5t-71.5 -13t-56.5 -13q-20 -6 -30.5 -4t-14.5 20l-26 100q-8 29 18 39q82 33 185.5 46.5t185.5 13.5q209 0 304 -95.5t95 -269.5v-627 q0 -43 -35 -59q-92 -41 -201.5 -55.5t-207.5 -14.5q-133 0 -220.5 28t-137.5 75t-69.5 109.5t-19.5 129.5zM295 319q0 -100 65.5 -138t176.5 -38q16 0 44.5 1t61.5 5.5t69 11.5t66 17v336h-219q-37 0 -83 -5t-86 -24.5t-67.5 -58.5t-27.5 -107zM316.5 1539q2.5 9 19.5 13 l158 43q20 4 29 -3t14 -17l135 -324q10 -20 7 -27t-20 -12l-65 -24q-16 -4 -25.5 -1t-21.5 19l-225 314q-8 10 -5.5 19z" />
<glyph unicode="&#xe1;" horiz-adv-x="1116" d="M92 319q0 68 22.5 133.5t75 118t140.5 84t217 31.5h233v37q0 45 -9 82t-34.5 63.5t-70.5 41t-117 14.5q-37 0 -77 -4.5t-78 -10.5t-71.5 -13t-56.5 -13q-20 -6 -30.5 -4t-14.5 20l-26 100q-8 29 18 39q82 33 185.5 46.5t185.5 13.5q209 0 304 -95.5t95 -269.5v-627 q0 -43 -35 -59q-92 -41 -201.5 -55.5t-207.5 -14.5q-133 0 -220.5 28t-137.5 75t-69.5 109.5t-19.5 129.5zM295 319q0 -100 65.5 -138t176.5 -38q16 0 44.5 1t61.5 5.5t69 11.5t66 17v336h-219q-37 0 -83 -5t-86 -24.5t-67.5 -58.5t-27.5 -107zM460 1223.5q-3 7.5 7 27.5 l135 324q4 10 13.5 17t29.5 3l158 -43q16 -4 19 -13t-5 -19l-225 -314q-12 -16 -21.5 -19t-25.5 1l-66 24q-16 4 -19 11.5z" />
<glyph unicode="&#xe2;" horiz-adv-x="1116" d="M92 319q0 68 22.5 133.5t75 118t140.5 84t217 31.5h233v37q0 45 -9 82t-34.5 63.5t-70.5 41t-117 14.5q-37 0 -77 -4.5t-78 -10.5t-71.5 -13t-56.5 -13q-20 -6 -30.5 -4t-14.5 20l-26 100q-8 29 18 39q82 33 185.5 46.5t185.5 13.5q209 0 304 -95.5t95 -269.5v-627 q0 -43 -35 -59q-92 -41 -201.5 -55.5t-207.5 -14.5q-133 0 -220.5 28t-137.5 75t-69.5 109.5t-19.5 129.5zM238 1257l270 273q23 23 42 31t42 8q27 0 46 -7.5t44 -31.5l258 -268q27 -27 2 -48l-39 -34q-18 -14 -45 4l-266 186l-266 -192q-25 -14 -43 4l-43 45q-14 14 -2 30z M295 319q0 -100 65.5 -138t176.5 -38q16 0 44.5 1t61.5 5.5t69 11.5t66 17v336h-219q-37 0 -83 -5t-86 -24.5t-67.5 -58.5t-27.5 -107z" />
<glyph unicode="&#xe3;" horiz-adv-x="1116" d="M92 319q0 68 22.5 133.5t75 118t140.5 84t217 31.5h233v37q0 45 -9 82t-34.5 63.5t-70.5 41t-117 14.5q-37 0 -77 -4.5t-78 -10.5t-71.5 -13t-56.5 -13q-20 -6 -30.5 -4t-14.5 20l-26 100q-8 29 18 39q82 33 185.5 46.5t185.5 13.5q209 0 304 -95.5t95 -269.5v-627 q0 -43 -35 -59q-92 -41 -201.5 -55.5t-207.5 -14.5q-133 0 -220.5 28t-137.5 75t-69.5 109.5t-19.5 129.5zM225.5 1317q-6.5 6 1.5 22q35 61 88.5 106.5t133.5 45.5q37 0 69.5 -12.5t64 -27.5t61.5 -27.5t58 -12.5q31 0 54.5 16.5t34.5 40.5q8 16 15 18.5t23 -1.5l80 -23 q35 -6 25 -30q-35 -76 -84 -120t-133 -44q-37 0 -71 11t-67.5 24.5t-66.5 25.5t-68 12q-27 0 -48 -16t-34 -39q-6 -10 -15 -15t-28 3l-69 31q-18 6 -24.5 12zM295 319q0 -100 65.5 -138t176.5 -38q16 0 44.5 1t61.5 5.5t69 11.5t66 17v336h-219q-37 0 -83 -5t-86 -24.5 t-67.5 -58.5t-27.5 -107z" />
<glyph unicode="&#xe4;" horiz-adv-x="1116" d="M92 319q0 68 22.5 133.5t75 118t140.5 84t217 31.5h233v37q0 45 -9 82t-34.5 63.5t-70.5 41t-117 14.5q-37 0 -77 -4.5t-78 -10.5t-71.5 -13t-56.5 -13q-20 -6 -30.5 -4t-14.5 20l-26 100q-8 29 18 39q82 33 185.5 46.5t185.5 13.5q209 0 304 -95.5t95 -269.5v-627 q0 -43 -35 -59q-92 -41 -201.5 -55.5t-207.5 -14.5q-133 0 -220.5 28t-137.5 75t-69.5 109.5t-19.5 129.5zM281 1372q0 23 10 44.5t27.5 39t39 27.5t45.5 10q47 0 85 -37t38 -84t-37.5 -84t-85.5 -37q-25 0 -46 10.5t-38.5 27t-27.5 39t-10 44.5zM295 319q0 -100 65.5 -138 t176.5 -38q16 0 44.5 1t61.5 5.5t69 11.5t66 17v336h-219q-37 0 -83 -5t-86 -24.5t-67.5 -58.5t-27.5 -107zM657 1372q0 23 10.5 44.5t28 39t39 27.5t45.5 10q47 0 85 -37t38 -84t-37 -84t-84 -37q-49 0 -87 37t-38 84z" />
<glyph unicode="&#xe5;" horiz-adv-x="1116" d="M92 319q0 68 22.5 133.5t75 118t140.5 84t217 31.5h233v37q0 45 -9 82t-34.5 63.5t-70.5 41t-117 14.5q-37 0 -77 -4.5t-78 -10.5t-71.5 -13t-56.5 -13q-20 -6 -30.5 -4t-14.5 20l-26 100q-8 29 18 39q82 33 185.5 46.5t185.5 13.5q209 0 304 -95.5t95 -269.5v-627 q0 -43 -35 -59q-92 -41 -201.5 -55.5t-207.5 -14.5q-133 0 -220.5 28t-137.5 75t-69.5 109.5t-19.5 129.5zM295 319q0 -100 65.5 -138t176.5 -38q16 0 44.5 1t61.5 5.5t69 11.5t66 17v336h-219q-37 0 -83 -5t-86 -24.5t-67.5 -58.5t-27.5 -107zM391 1384q0 86 60.5 142.5 t148.5 56.5t148.5 -56.5t60.5 -142.5t-60.5 -142t-148.5 -56t-148.5 55t-60.5 143zM494 1384q0 -47 29.5 -76.5t76.5 -29.5t77 29.5t30 76.5t-30 77t-77 30t-76.5 -29.5t-29.5 -77.5z" />
<glyph unicode="&#xe6;" horiz-adv-x="1767" d="M92 299q0 57 17.5 119.5t63.5 115t127 86t208 33.5h250q27 145 -37 208t-195 63q-74 0 -151.5 -13.5t-124.5 -27.5q-20 -6 -30.5 -4t-14.5 20l-27 100q-8 29 19 39q82 33 182 46.5t182 13.5q129 0 210 -37t126 -107q63 70 150.5 107t185.5 37q109 0 190.5 -31t137 -88 t84 -136t32.5 -173q2 -53 -12 -87t-37.5 -53.5t-55.5 -27.5t-65 -8h-557q2 -109 26.5 -176.5t67.5 -104.5t98.5 -49t119.5 -12q68 0 134 18t107 41q31 14 43 -12l49 -97q14 -33 -12 -47q-78 -47 -166 -62.5t-170 -15.5q-96 0 -177 29t-142 72q-47 -29 -104.5 -47.5 t-117 -30.5t-115.5 -17.5t-104 -5.5q-133 0 -211.5 31t-119.5 78t-52.5 103.5t-11.5 109.5zM295 299q0 -72 45 -117t156 -45q14 0 51 2t82 9.5t93 20.5t89 36q-31 59 -46 126.5t-17 162.5h-216q-41 0 -82.5 -8.5t-75.5 -30t-56.5 -59.5t-22.5 -97zM958 653h529 q0 47 -11.5 96.5t-40 89.5t-78.5 65.5t-126 25.5q-63 0 -112.5 -21.5t-83.5 -59.5t-53 -88t-24 -108z" />
<glyph unicode="&#xe7;" horiz-adv-x="987" d="M92 526q0 129 34 234.5t96.5 180.5t152.5 116t203 41q84 0 159.5 -16.5t145.5 -55.5q31 -16 12 -47l-47 -98q-6 -12 -13.5 -17.5t-29.5 4.5q-47 20 -102.5 35t-120.5 15q-76 0 -130.5 -32t-89 -86.5t-51 -125t-16.5 -148.5q0 -76 13.5 -144.5t45 -119.5t88 -80.5 t142.5 -29.5q68 0 134 17t109 40q20 10 28.5 5t14.5 -17l48 -99q18 -31 -13 -47q-68 -39 -147.5 -53t-153.5 -18l-31 -95q57 -4 96.5 -18t62 -35.5t32.5 -49.5t10 -54q0 -29 -13 -58.5t-40 -54.5t-68 -40t-96 -15q-51 0 -100 9t-80 25q-25 8 -15 35l17 43q8 16 14 17.5 t21 -2.5q59 -20 118 -21q100 0 101 66q0 35 -35 49t-76 14h-41t-20 8q-10 10 -8 22.5t6 29.5l43 125q-199 16 -304.5 153t-105.5 393z" />
<glyph unicode="&#xe8;" horiz-adv-x="1110" d="M92 532q0 135 37 240t101.5 177.5t151.5 110.5t189 38q117 0 202 -32t140.5 -90t82 -141t26.5 -184q0 -53 -14.5 -87t-37 -53t-54 -27.5t-64.5 -8.5h-557q2 -90 26.5 -151.5t67.5 -99.5t98.5 -55t118.5 -17q68 0 134.5 18t107.5 41q31 14 43 -12l49 -97q14 -33 -12 -47 q-78 -47 -166 -62.5t-170 -15.5q-236 0 -368 132.5t-132 422.5zM303 635h528q0 61 -11 114.5t-39.5 93.5t-79 63.5t-128.5 23.5q-63 0 -112 -25.5t-83 -67.5t-53.5 -94.5t-21.5 -107.5zM327 1539q3 9 19 13l158 43q20 4 29.5 -3t13.5 -17l135 -324q10 -20 7 -27t-19 -12 l-66 -24q-16 -4 -25.5 -1t-21.5 19l-225 314q-8 10 -5 19z" />
<glyph unicode="&#xe9;" horiz-adv-x="1110" d="M92 532q0 135 37 240t101.5 177.5t151.5 110.5t189 38q117 0 202 -32t140.5 -90t82 -141t26.5 -184q0 -53 -14.5 -87t-37 -53t-54 -27.5t-64.5 -8.5h-557q2 -90 26.5 -151.5t67.5 -99.5t98.5 -55t118.5 -17q68 0 134.5 18t107.5 41q31 14 43 -12l49 -97q14 -33 -12 -47 q-78 -47 -166 -62.5t-170 -15.5q-236 0 -368 132.5t-132 422.5zM303 635h528q0 61 -11 114.5t-39.5 93.5t-79 63.5t-128.5 23.5q-63 0 -112 -25.5t-83 -67.5t-53.5 -94.5t-21.5 -107.5zM460 1223.5q-3 7.5 7 27.5l135 324q4 10 13.5 17t29.5 3l158 -43q16 -4 19 -13t-5 -19 l-225 -314q-12 -16 -21.5 -19t-25.5 1l-66 24q-16 4 -19 11.5z" />
<glyph unicode="&#xea;" horiz-adv-x="1110" d="M92 532q0 135 37 240t101.5 177.5t151.5 110.5t189 38q117 0 202 -32t140.5 -90t82 -141t26.5 -184q0 -53 -14.5 -87t-37 -53t-54 -27.5t-64.5 -8.5h-557q2 -90 26.5 -151.5t67.5 -99.5t98.5 -55t118.5 -17q68 0 134.5 18t107.5 41q31 14 43 -12l49 -97q14 -33 -12 -47 q-78 -47 -166 -62.5t-170 -15.5q-236 0 -368 132.5t-132 422.5zM223 1257l271 273q23 23 42 31t42 8q27 0 46 -7.5t44 -31.5l258 -268q27 -27 2 -48l-39 -34q-18 -14 -45 4l-266 186l-267 -192q-25 -14 -43 4l-43 45q-14 14 -2 30zM303 635h528q0 61 -11 114.5t-39.5 93.5 t-79 63.5t-128.5 23.5q-63 0 -112 -25.5t-83 -67.5t-53.5 -94.5t-21.5 -107.5z" />
<glyph unicode="&#xeb;" horiz-adv-x="1110" d="M92 532q0 135 37 240t101.5 177.5t151.5 110.5t189 38q117 0 202 -32t140.5 -90t82 -141t26.5 -184q0 -53 -14.5 -87t-37 -53t-54 -27.5t-64.5 -8.5h-557q2 -90 26.5 -151.5t67.5 -99.5t98.5 -55t118.5 -17q68 0 134.5 18t107.5 41q31 14 43 -12l49 -97q14 -33 -12 -47 q-78 -47 -166 -62.5t-170 -15.5q-236 0 -368 132.5t-132 422.5zM270 1372q0 23 10.5 44.5t28 39t39 27.5t45.5 10q47 0 85 -37t38 -84t-38 -84t-85 -37q-25 0 -46 10.5t-38.5 27t-28 39t-10.5 44.5zM303 635h528q0 61 -11 114.5t-39.5 93.5t-79 63.5t-128.5 23.5 q-63 0 -112 -25.5t-83 -67.5t-53.5 -94.5t-21.5 -107.5zM647 1372q0 23 10.5 44.5t27.5 39t38.5 27.5t46.5 10q47 0 85 -37t38 -84t-37 -84t-84 -37q-49 0 -87 37t-38 84z" />
<glyph unicode="&#xec;" horiz-adv-x="561" d="M17.5 1539q2.5 9 19.5 13l158 43q20 4 29 -3t14 -17l135 -324q10 -20 7 -27t-20 -12l-65 -24q-16 -4 -25.5 -1t-21.5 19l-225 314q-8 10 -5.5 19zM180 33v1009q0 23 9.5 28t27.5 5h127q20 0 28.5 -5t8.5 -28v-1009q0 -23 -8 -28t-29 -5h-127q-18 0 -27.5 5t-9.5 28z" />
<glyph unicode="&#xed;" horiz-adv-x="561" d="M180 33v1009q0 23 9.5 28t27.5 5h127q20 0 28.5 -5t8.5 -28v-1009q0 -23 -8 -28t-29 -5h-127q-18 0 -27.5 5t-9.5 28zM212 1223.5q-3 7.5 7 27.5l135 324q4 10 13.5 17t29.5 3l158 -43q16 -4 19.5 -13t-5.5 -19l-225 -314q-12 -16 -21.5 -19t-25.5 1l-66 24 q-16 4 -19 11.5z" />
<glyph unicode="&#xee;" horiz-adv-x="561" d="M-68 1257l271 273q23 23 42 31t42 8q27 0 46 -7.5t44 -31.5l258 -268q27 -27 2 -48l-39 -34q-18 -14 -45 4l-266 186l-267 -192q-25 -14 -43 4l-43 45q-14 14 -2 30zM180 33v1009q0 23 9.5 28t27.5 5h127q20 0 28.5 -5t8.5 -28v-1009q0 -23 -8 -28t-29 -5h-127 q-18 0 -27.5 5t-9.5 28z" />
<glyph unicode="&#xef;" horiz-adv-x="561" d="M-29 1372q0 23 10.5 44.5t28 39t39 27.5t45.5 10q47 0 85 -37t38 -84t-38 -84t-85 -37q-25 0 -46 10.5t-38.5 27t-28 39t-10.5 44.5zM180 33v1009q0 23 9.5 28t27.5 5h127q20 0 28.5 -5t8.5 -28v-1009q0 -23 -8 -28t-29 -5h-127q-18 0 -27.5 5t-9.5 28zM348 1372 q0 23 10.5 44.5t27.5 39t38.5 27.5t46.5 10q47 0 85 -37t38 -84t-37 -84t-84 -37q-49 0 -87 37t-38 84z" />
<glyph unicode="&#xf0;" horiz-adv-x="1132" d="M92 477q0 88 26.5 177t84 161t145.5 116t209 44q53 0 110.5 -8.5t116.5 -30.5l11 6q-27 70 -65 136.5t-87 117.5l-119 -104q-16 -14 -25.5 -11.5t-23.5 17.5l-24 26q-12 12 -15.5 22.5t13.5 24.5l114 101q-41 33 -84 63.5t-90 59.5q-23 14 -18.5 26.5t8.5 20.5l31 51 q20 33 36.5 30t26.5 -7q119 -59 213 -136l133 117q16 14 25.5 11t23.5 -19l23 -25q14 -16 17 -24t-13 -23l-127 -112q135 -137 203.5 -323.5t68.5 -389.5q0 -96 -18 -202.5t-71.5 -197t-147.5 -149.5t-248 -59q-139 0 -229 44t-142.5 113.5t-72 157.5t-19.5 178zM293 485 q0 -51 7 -110.5t33.5 -110.5t79 -85t142.5 -34q88 0 145.5 36t91 92.5t46 126t12.5 139.5q0 61 -5 116.5t-16 92.5q-78 43 -144 53t-107 10q-80 0 -134.5 -28.5t-88 -76t-48 -105.5t-14.5 -116z" />
<glyph unicode="&#xf1;" horiz-adv-x="1163" d="M133 33v876q0 76 28.5 118t114.5 54q20 2 53 5.5t69 6.5t70 4t58 1q131 0 226.5 -29t157 -91.5t91 -160.5t29.5 -237v-547q0 -23 -8 -28t-29 -5h-127q-18 0 -27.5 5t-9.5 28v540q0 88 -14 153t-51 108t-98.5 64.5t-155.5 21.5q-23 0 -68 -2.5t-108 -12.5v-872 q0 -23 -8.5 -28t-28.5 -5h-127q-18 0 -27.5 5t-9.5 28zM174.5 1317q-6.5 6 1.5 22q35 61 88 106.5t133 45.5q37 0 70 -12.5t64.5 -27.5t61.5 -27.5t58 -12.5q31 0 54.5 16.5t33.5 40.5q8 16 15.5 18.5t23.5 -1.5l80 -23q35 -6 25 -30q-35 -76 -84 -120t-133 -44 q-37 0 -71 11t-67.5 24.5t-66.5 25.5t-68 12q-27 0 -48 -16t-34 -39q-6 -10 -15 -15t-28 3l-69 31q-18 6 -24.5 12z" />
<glyph unicode="&#xf2;" horiz-adv-x="1153" d="M92 537q0 135 37 239.5t102.5 176t154.5 108.5t192 37q238 0 360.5 -146.5t122.5 -408.5q0 -274 -124 -420t-366 -146q-236 0 -357.5 140.5t-121.5 419.5zM293 543q0 -90 13 -163t46 -125t87.5 -81t133.5 -29q82 0 136.5 33t87 87t47 125t14.5 147t-11 147.5t-42 125.5 t-84 87t-139 33q-74 0 -128.5 -31t-90 -83t-53 -122.5t-17.5 -150.5zM329 1539q3 9 19 13l158 43q20 4 29.5 -3t13.5 -17l135 -324q10 -20 7 -27t-19 -12l-66 -24q-16 -4 -25.5 -1t-21.5 19l-225 314q-8 10 -5 19z" />
<glyph unicode="&#xf3;" horiz-adv-x="1153" d="M92 537q0 135 37 239.5t102.5 176t154.5 108.5t192 37q238 0 360.5 -146.5t122.5 -408.5q0 -274 -124 -420t-366 -146q-236 0 -357.5 140.5t-121.5 419.5zM293 543q0 -90 13 -163t46 -125t87.5 -81t133.5 -29q82 0 136.5 33t87 87t47 125t14.5 147t-11 147.5t-42 125.5 t-84 87t-139 33q-74 0 -128.5 -31t-90 -83t-53 -122.5t-17.5 -150.5zM478.5 1223.5q-3.5 7.5 6.5 27.5l136 324q4 10 13 17t30 3l157 -43q16 -4 19.5 -13t-4.5 -19l-226 -314q-12 -16 -21 -19t-26 1l-65 24q-16 4 -19.5 11.5z" />
<glyph unicode="&#xf4;" horiz-adv-x="1153" d="M92 537q0 135 37 239.5t102.5 176t154.5 108.5t192 37q238 0 360.5 -146.5t122.5 -408.5q0 -274 -124 -420t-366 -146q-236 0 -357.5 140.5t-121.5 419.5zM233 1257l271 273q23 23 42 31t42 8q27 0 46 -7.5t44 -31.5l258 -268q27 -27 2 -48l-39 -34q-18 -14 -45 4 l-266 186l-266 -192q-25 -14 -43 4l-43 45q-14 14 -3 30zM293 543q0 -90 13 -163t46 -125t87.5 -81t133.5 -29q82 0 136.5 33t87 87t47 125t14.5 147t-11 147.5t-42 125.5t-84 87t-139 33q-74 0 -128.5 -31t-90 -83t-53 -122.5t-17.5 -150.5z" />
<glyph unicode="&#xf5;" horiz-adv-x="1153" d="M92 537q0 135 37 239.5t102.5 176t154.5 108.5t192 37q238 0 360.5 -146.5t122.5 -408.5q0 -274 -124 -420t-366 -146q-236 0 -357.5 140.5t-121.5 419.5zM223.5 1317q-6.5 6 1.5 22q35 61 88.5 106.5t132.5 45.5q37 0 70 -12.5t64.5 -27.5t61.5 -27.5t58 -12.5 q31 0 54.5 16.5t33.5 40.5q8 16 15.5 18.5t23.5 -1.5l80 -23q35 -6 25 -30q-35 -76 -84 -120t-133 -44q-37 0 -71 11t-67.5 24.5t-66.5 25.5t-68 12q-27 0 -48 -16t-34 -39q-6 -10 -15 -15t-28 3l-69 31q-18 6 -24.5 12zM293 543q0 -90 13 -163t46 -125t87.5 -81t133.5 -29 q82 0 136.5 33t87 87t47 125t14.5 147t-11 147.5t-42 125.5t-84 87t-139 33q-74 0 -128.5 -31t-90 -83t-53 -122.5t-17.5 -150.5z" />
<glyph unicode="&#xf6;" horiz-adv-x="1153" d="M92 537q0 135 37 239.5t102.5 176t154.5 108.5t192 37q238 0 360.5 -146.5t122.5 -408.5q0 -274 -124 -420t-366 -146q-236 0 -357.5 140.5t-121.5 419.5zM260 1372q0 23 10.5 44.5t27.5 39t38.5 27.5t46.5 10q47 0 85 -37t38 -84t-38 -84t-85 -37q-25 0 -46.5 10.5 t-38.5 27t-27.5 39t-10.5 44.5zM293 543q0 -90 13 -163t46 -125t87.5 -81t133.5 -29q82 0 136.5 33t87 87t47 125t14.5 147t-11 147.5t-42 125.5t-84 87t-139 33q-74 0 -128.5 -31t-90 -83t-53 -122.5t-17.5 -150.5zM637 1372q0 23 10 44.5t27.5 39t39 27.5t46.5 10 q47 0 85 -37t38 -84t-37 -84t-84 -37q-49 0 -87 37t-38 84z" />
<glyph unicode="&#xf7;" d="M106 645v121q0 18 5.5 27.5t27.5 9.5h940q23 0 28 -9.5t5 -27.5v-121q0 -20 -5 -28.5t-28 -8.5h-940q-23 0 -28 8.5t-5 28.5zM455 309q0 68 46 116t113 48q72 0 118 -46t46 -116t-47 -115.5t-117 -45.5q-68 0 -113.5 46t-45.5 113zM455 1079q0 68 46 115t113 47 q72 0 118 -46t46 -116q0 -68 -47 -114.5t-117 -46.5q-68 0 -113.5 46t-45.5 115z" />
<glyph unicode="&#xf8;" horiz-adv-x="1153" d="M92 537q0 135 37 239.5t102.5 176t154.5 108.5t192 37q100 0 181 -28t140 -81l76 88q10 10 18 9t19 -7l37 -37q10 -8 10 -14t-10 -18l-84 -97q96 -143 96 -370q0 -274 -124 -420t-366 -146q-207 0 -325 109l-68 -78q-18 -18 -33 -2l-39 35q-20 16 0 35l74 86 q-88 133 -88 375zM293 543q0 -63 6 -117.5t23 -101.5l454 526q-31 37 -79 58.5t-115 21.5q-74 0 -128.5 -31t-90 -83t-53 -122.5t-17.5 -150.5zM371 229q66 -84 202 -84q82 0 136.5 33t87 87t47 125t14.5 147q0 59 -7 115.5t-24 103.5z" />
<glyph unicode="&#xf9;" horiz-adv-x="1142" d="M133 498v546q0 23 8.5 28t28.5 5h127q18 0 27.5 -5t9.5 -28v-540q0 -88 11 -152.5t44 -107.5t91.5 -64.5t152.5 -21.5q23 0 67.5 2t108.5 12v872q0 23 8 28t29 5h127q18 0 27.5 -5t9.5 -28v-876q0 -147 -144 -172q-57 -10 -128.5 -13t-121.5 -3q-133 0 -224 28.5 t-149.5 91t-84 160.5t-25.5 238zM325 1539q3 9 19 13l158 43q20 4 29.5 -3t13.5 -17l135 -324q10 -20 7 -27t-19 -12l-66 -24q-16 -4 -25.5 -1t-21.5 19l-225 314q-8 10 -5 19z" />
<glyph unicode="&#xfa;" horiz-adv-x="1142" d="M133 498v546q0 23 8.5 28t28.5 5h127q18 0 27.5 -5t9.5 -28v-540q0 -88 11 -152.5t44 -107.5t91.5 -64.5t152.5 -21.5q23 0 67.5 2t108.5 12v872q0 23 8 28t29 5h127q18 0 27.5 -5t9.5 -28v-876q0 -147 -144 -172q-57 -10 -128.5 -13t-121.5 -3q-133 0 -224 28.5 t-149.5 91t-84 160.5t-25.5 238zM486.5 1223.5q-3.5 7.5 7.5 27.5l135 324q4 10 13 17t30 3l157 -43q16 -4 19.5 -13t-4.5 -19l-226 -314q-12 -16 -21 -19t-26 1l-65 24q-16 4 -19.5 11.5z" />
<glyph unicode="&#xfb;" horiz-adv-x="1142" d="M133 498v546q0 23 8.5 28t28.5 5h127q18 0 27.5 -5t9.5 -28v-540q0 -88 11 -152.5t44 -107.5t91.5 -64.5t152.5 -21.5q23 0 67.5 2t108.5 12v872q0 23 8 28t29 5h127q18 0 27.5 -5t9.5 -28v-876q0 -147 -144 -172q-57 -10 -128.5 -13t-121.5 -3q-133 0 -224 28.5 t-149.5 91t-84 160.5t-25.5 238zM238 1257l270 273q23 23 42 31t42 8q27 0 46 -7.5t44 -31.5l258 -268q27 -27 2 -48l-39 -34q-18 -14 -45 4l-266 186l-266 -192q-25 -14 -43 4l-43 45q-14 14 -2 30z" />
<glyph unicode="&#xfc;" horiz-adv-x="1142" d="M133 498v546q0 23 8.5 28t28.5 5h127q18 0 27.5 -5t9.5 -28v-540q0 -88 11 -152.5t44 -107.5t91.5 -64.5t152.5 -21.5q23 0 67.5 2t108.5 12v872q0 23 8 28t29 5h127q18 0 27.5 -5t9.5 -28v-876q0 -147 -144 -172q-57 -10 -128.5 -13t-121.5 -3q-133 0 -224 28.5 t-149.5 91t-84 160.5t-25.5 238zM279 1372q0 23 10 44.5t27.5 39t39 27.5t45.5 10q47 0 85 -37t38 -84t-37.5 -84t-85.5 -37q-25 0 -46 10.5t-38.5 27t-27.5 39t-10 44.5zM655 1372q0 23 10.5 44.5t28 39t39 27.5t45.5 10q47 0 85 -37t38 -84t-37 -84t-84 -37q-49 0 -87 37 t-38 84z" />
<glyph unicode="&#xfd;" horiz-adv-x="1021" d="M23 1053q-6 23 18 22h158q16 0 21 -5t9 -15l156 -506l111 -379h12l123 381l168 504q4 10 9 15t21 5h152q25 0 18 -22l-405 -1225q-47 -141 -126 -198.5t-200 -57.5q-27 0 -71.5 4t-96.5 18q-33 8 -24 35l24 103q4 18 12.5 21t24.5 -1q35 -8 53.5 -11t47.5 -3 q74 0 116.5 28.5t67.5 104.5l47 141h-43q-33 0 -57.5 11.5t-42.5 70.5zM452 1223.5q-3 7.5 7 27.5l135 324q4 10 13 17t30 3l158 -43q16 -4 19 -13t-5 -19l-225 -314q-12 -16 -21.5 -19t-25.5 1l-66 24q-16 4 -19 11.5z" />
<glyph unicode="&#xfe;" horiz-adv-x="1157" d="M133 -381v1845q0 23 8.5 28t28.5 5h129q18 0 27.5 -5t9.5 -28v-389q63 12 124.5 17.5t121.5 5.5q125 0 217 -43t150.5 -119t87 -178t28.5 -219q0 -115 -29.5 -216.5t-89 -178t-149.5 -122t-209 -45.5q-53 0 -115.5 6.5t-136.5 24.5v-389q0 -23 -8.5 -28t-28.5 -5h-129 q-18 0 -27.5 5.5t-9.5 27.5zM336 182q72 -18 122 -24t97 -6q66 0 121 19t95 64.5t62.5 119t22.5 184.5q0 211 -82 299t-225 88q-49 0 -111.5 -9.5t-101.5 -25.5v-709z" />
<glyph unicode="&#xff;" horiz-adv-x="1021" d="M23 1053q-6 23 18 22h158q16 0 21 -5t9 -15l156 -506l111 -379h12l123 381l168 504q4 10 9 15t21 5h152q25 0 18 -22l-405 -1225q-47 -141 -126 -198.5t-200 -57.5q-27 0 -71.5 4t-96.5 18q-33 8 -24 35l24 103q4 18 12.5 21t24.5 -1q35 -8 53.5 -11t47.5 -3 q74 0 116.5 28.5t67.5 104.5l47 141h-43q-33 0 -57.5 11.5t-42.5 70.5zM197 1372q0 23 10 44.5t27.5 39t39 27.5t45.5 10q47 0 85 -37t38 -84t-37.5 -84t-85.5 -37q-25 0 -46 10.5t-38.5 27t-27.5 39t-10 44.5zM573 1372q0 23 10.5 44.5t28 39t39 27.5t45.5 10q47 0 85 -37 t38 -84t-37 -84t-84 -37q-49 0 -87 37t-38 84z" />
<glyph unicode="&#x100;" horiz-adv-x="1288" d="M34.5 13.5q-5.5 13.5 0.5 29.5l454 1305q18 53 41 70.5t76 19.5h68q61 0 83.5 -19.5t39.5 -70.5l456 -1305q6 -16 0 -29.5t-26 -13.5h-154q-23 0 -35 4t-20 29l-96 291h-555l-97 -291q-6 -16 -16 -24.5t-33 -8.5h-158q-23 0 -28.5 13.5zM362 1620v86q0 18 5.5 27.5 t27.5 9.5h498q23 0 28 -9.5t5 -27.5v-86q0 -20 -5.5 -28.5t-27.5 -8.5h-498q-23 0 -28 8t-5 29zM422 510h438l-125 395l-92 291h-10l-86 -281z" />
<glyph unicode="&#x101;" horiz-adv-x="1116" d="M92 319q0 68 22.5 133.5t75 118t140.5 84t217 31.5h233v37q0 45 -9 82t-34.5 63.5t-70.5 41t-117 14.5q-37 0 -77 -4.5t-78 -10.5t-71.5 -13t-56.5 -13q-20 -6 -30.5 -4t-14.5 20l-26 100q-8 29 18 39q82 33 185.5 46.5t185.5 13.5q209 0 304 -95.5t95 -269.5v-627 q0 -43 -35 -59q-92 -41 -201.5 -55.5t-207.5 -14.5q-133 0 -220.5 28t-137.5 75t-69.5 109.5t-19.5 129.5zM291 1303v86q0 18 5 27t28 9h497q23 0 28 -9t5 -27v-86q0 -20 -5 -28.5t-28 -8.5h-497q-23 0 -28 8t-5 29zM295 319q0 -100 65.5 -138t176.5 -38q16 0 44.5 1 t61.5 5.5t69 11.5t66 17v336h-219q-37 0 -83 -5t-86 -24.5t-67.5 -58.5t-27.5 -107z" />
<glyph unicode="&#x102;" horiz-adv-x="1288" d="M34.5 13.5q-5.5 13.5 0.5 29.5l454 1305q18 53 41 70.5t76 19.5h68q61 0 83.5 -19.5t39.5 -70.5l456 -1305q6 -16 0 -29.5t-26 -13.5h-154q-23 0 -35 4t-20 29l-96 291h-555l-97 -291q-6 -16 -16 -24.5t-33 -8.5h-158q-23 0 -28.5 13.5zM282 1767.5q-3 10.5 13 24.5 l45 39q18 12 24.5 9t22.5 -15q61 -63 127 -101t123 -38q23 0 48.5 5t56 21.5t66.5 44t81 74.5q18 16 25.5 14t17.5 -10l45 -37q18 -16 15 -26.5t-7 -16.5q-92 -121 -184 -173t-172 -52q-53 0 -101.5 18.5t-91.5 49t-80 70.5t-67 83q-4 6 -7 16.5zM422 510h438l-125 395 l-92 291h-10l-86 -281z" />
<glyph unicode="&#x103;" horiz-adv-x="1116" d="M92 319q0 68 22.5 133.5t75 118t140.5 84t217 31.5h233v37q0 45 -9 82t-34.5 63.5t-70.5 41t-117 14.5q-37 0 -77 -4.5t-78 -10.5t-71.5 -13t-56.5 -13q-20 -6 -30.5 -4t-14.5 20l-26 100q-8 29 18 39q82 33 185.5 46.5t185.5 13.5q209 0 304 -95.5t95 -269.5v-627 q0 -43 -35 -59q-92 -41 -201.5 -55.5t-207.5 -14.5q-133 0 -220.5 28t-137.5 75t-69.5 109.5t-19.5 129.5zM241 1443.5q-3 10.5 13 24.5l45 39q18 12 24.5 9t22.5 -15q61 -63 127 -101t123 -38q23 0 48.5 5t56 21.5t66.5 44t81 74.5q18 16 25.5 14.5t17.5 -10.5l45 -36 q18 -16 15 -26.5t-7 -16.5q-92 -121 -184 -173.5t-172 -52.5q-53 0 -101.5 18.5t-91.5 49.5t-79.5 70.5t-67.5 82.5q-4 6 -7 16.5zM295 319q0 -100 65.5 -138t176.5 -38q16 0 44.5 1t61.5 5.5t69 11.5t66 17v336h-219q-37 0 -83 -5t-86 -24.5t-67.5 -58.5t-27.5 -107z" />
<glyph unicode="&#x104;" horiz-adv-x="1288" d="M34.5 13.5q-5.5 13.5 0.5 29.5l454 1305q18 53 41 70.5t76 19.5h68q61 0 83.5 -19.5t39.5 -70.5l456 -1305q6 -16 0 -29.5t-26 -13.5h-94q-70 -76 -101 -141.5t-31 -108.5q0 -41 27 -54t76 -13q14 0 43 5t57 11q16 4 22.5 3t10.5 -17l14 -43q6 -16 1 -23.5t-15 -11.5 q-29 -14 -84 -27.5t-111 -13.5q-106 0 -151 44t-47 107q0 39 13 82t37 82t57.5 72.5t72.5 56.5l2 2q-6 4 -8 21l-96 291h-555l-97 -291q-6 -16 -16 -24.5t-33 -8.5h-158q-23 0 -28.5 13.5zM422 510h438l-125 395l-92 291h-10l-86 -281z" />
<glyph unicode="&#x105;" horiz-adv-x="1116" d="M92 319q0 68 22.5 133.5t75 118t140.5 84t217 31.5h233v37q0 45 -9 82t-34.5 63.5t-70.5 41t-117 14.5q-37 0 -77 -4.5t-78 -10.5t-71.5 -13t-56.5 -13q-20 -6 -30.5 -4t-14.5 20l-26 100q-8 29 18 39q82 33 185.5 46.5t185.5 13.5q209 0 304 -95.5t95 -269.5v-627 q0 -39 -27 -55q-66 -74 -95.5 -137.5t-29.5 -106.5q0 -41 27 -54t76 -13q14 0 43 5t57 11q16 4 22.5 3t10.5 -17l14 -43q6 -16 1 -23.5t-15 -11.5q-29 -14 -84 -27.5t-111 -13.5q-106 0 -151 44t-47 108q-2 55 23.5 114.5t68.5 106.5q-59 -10 -116.5 -14.5t-110.5 -4.5 q-133 0 -220.5 28t-137.5 75t-69.5 109.5t-19.5 129.5zM295 319q0 -100 65.5 -138t176.5 -38q16 0 44.5 1t61.5 5.5t69 11.5t66 17v336h-219q-37 0 -83 -5t-86 -24.5t-67.5 -58.5t-27.5 -107z" />
<glyph unicode="&#x106;" horiz-adv-x="1241" d="M113 696q0 172 46 311.5t129 239t200.5 153.5t259.5 54q86 0 181 -15.5t199 -68.5q12 -6 17.5 -17.5t-6.5 -33.5l-52 -107q-8 -14 -15 -19t-25 3q-63 27 -137 43t-154 16q-113 0 -194 -48t-132 -127t-75.5 -179t-24.5 -205q0 -104 20.5 -198.5t70.5 -166t134 -113.5 t213 -42q90 0 169 20.5t146 49.5q27 10 38.5 1t15.5 -20l43 -98q14 -29 9 -38t-20 -19q-98 -59 -215.5 -77t-222.5 -18q-145 0 -260 43t-194.5 131.5t-121.5 223.5t-42 321zM585 1615.5q1 8.5 17 20.5l295 217q10 8 20.5 10.5t24.5 -14.5l94 -131q12 -12 9 -21t-13 -14 l-348 -155q-20 -8 -30.5 -5t-20.5 13l-39 59q-10 12 -9 20.5z" />
<glyph unicode="&#x107;" horiz-adv-x="987" d="M92 526q0 129 34 234.5t96.5 180.5t152.5 116t203 41q84 0 159.5 -16.5t145.5 -55.5q31 -16 12 -47l-47 -98q-6 -12 -13.5 -17.5t-29.5 4.5q-47 20 -102.5 35t-120.5 15q-76 0 -130.5 -32t-89 -86.5t-51 -125t-16.5 -148.5q0 -76 13.5 -144.5t45 -119.5t88 -80.5 t142.5 -29.5q68 0 134 17t109 40q20 10 28.5 5t14.5 -17l48 -99q18 -31 -13 -47q-78 -45 -173 -59.5t-177 -14.5q-223 0 -343 138.5t-120 410.5zM458 1223.5q-3 7.5 7 27.5l135 324q4 10 13.5 17t29.5 3l158 -43q16 -4 19 -13t-5 -19l-225 -314q-12 -16 -21.5 -19t-25.5 1 l-66 24q-16 4 -19 11.5z" />
<glyph unicode="&#x108;" horiz-adv-x="1241" d="M113 696q0 172 46 311.5t129 239t200.5 153.5t259.5 54q86 0 181 -15.5t199 -68.5q12 -6 17.5 -17.5t-6.5 -33.5l-52 -107q-8 -14 -15 -19t-25 3q-63 27 -137 43t-154 16q-113 0 -194 -48t-132 -127t-75.5 -179t-24.5 -205q0 -104 20.5 -198.5t70.5 -166t134 -113.5 t213 -42q90 0 169 20.5t146 49.5q27 10 38.5 1t15.5 -20l43 -98q14 -29 9 -38t-20 -19q-98 -59 -215.5 -77t-222.5 -18q-145 0 -260 43t-194.5 131.5t-121.5 223.5t-42 321zM381 1591q-2 8 8 17l260 209q45 37 84 36q14 0 37 -5t53 -31l250 -209q25 -18 4 -43l-33 -39 q-8 -10 -18 -7t-27 11l-268 127l-266 -131q-12 -6 -20.5 -5t-18.5 11l-37 43q-6 8 -8 16z" />
<glyph unicode="&#x109;" horiz-adv-x="987" d="M92 526q0 129 34 234.5t96.5 180.5t152.5 116t203 41q84 0 159.5 -16.5t145.5 -55.5q31 -16 12 -47l-47 -98q-6 -12 -13.5 -17.5t-29.5 4.5q-47 20 -102.5 35t-120.5 15q-76 0 -130.5 -32t-89 -86.5t-51 -125t-16.5 -148.5q0 -76 13.5 -144.5t45 -119.5t88 -80.5 t142.5 -29.5q68 0 134 17t109 40q20 10 28.5 5t14.5 -17l48 -99q18 -31 -13 -47q-78 -45 -173 -59.5t-177 -14.5q-223 0 -343 138.5t-120 410.5zM213 1266l270 272q23 23 42.5 31t41.5 8q27 0 46.5 -7t43.5 -32l258 -268q27 -27 3 -47l-39 -35q-18 -14 -45 4l-267 186 l-266 -192q-25 -14 -43 4l-43 45q-14 14 -2 31z" />
<glyph unicode="&#x10a;" horiz-adv-x="1241" d="M113 696q0 172 46 311.5t129 239t200.5 153.5t259.5 54q86 0 181 -15.5t199 -68.5q12 -6 17.5 -17.5t-6.5 -33.5l-52 -107q-8 -14 -15 -19t-25 3q-63 27 -137 43t-154 16q-113 0 -194 -48t-132 -127t-75.5 -179t-24.5 -205q0 -104 20.5 -198.5t70.5 -166t134 -113.5 t213 -42q90 0 169 20.5t146 49.5q27 10 38.5 1t15.5 -20l43 -98q14 -29 9 -38t-20 -19q-98 -59 -215.5 -77t-222.5 -18q-145 0 -260 43t-194.5 131.5t-121.5 223.5t-42 321zM610 1671q0 51 38 89t91 38q51 0 90 -38t39 -89t-38.5 -89t-90.5 -38q-53 0 -91 38t-38 89z" />
<glyph unicode="&#x10b;" horiz-adv-x="987" d="M92 526q0 129 34 234.5t96.5 180.5t152.5 116t203 41q84 0 159.5 -16.5t145.5 -55.5q31 -16 12 -47l-47 -98q-6 -12 -13.5 -17.5t-29.5 4.5q-47 20 -102.5 35t-120.5 15q-76 0 -130.5 -32t-89 -86.5t-51 -125t-16.5 -148.5q0 -76 13.5 -144.5t45 -119.5t88 -80.5 t142.5 -29.5q68 0 134 17t109 40q20 10 28.5 5t14.5 -17l48 -99q18 -31 -13 -47q-78 -45 -173 -59.5t-177 -14.5q-223 0 -343 138.5t-120 410.5zM449 1376q0 51 37.5 89t91.5 38q51 0 90 -38t39 -89t-39 -89t-90 -38q-53 0 -91 38t-38 89z" />
<glyph unicode="&#x10c;" horiz-adv-x="1241" d="M113 696q0 172 46 311.5t129 239t200.5 153.5t259.5 54q86 0 181 -15.5t199 -68.5q12 -6 17.5 -17.5t-6.5 -33.5l-52 -107q-8 -14 -15 -19t-25 3q-63 27 -137 43t-154 16q-113 0 -194 -48t-132 -127t-75.5 -179t-24.5 -205q0 -104 20.5 -198.5t70.5 -166t134 -113.5 t213 -42q90 0 169 20.5t146 49.5q27 10 38.5 1t15.5 -20l43 -98q14 -29 9 -38t-20 -19q-98 -59 -215.5 -77t-222.5 -18q-145 0 -260 43t-194.5 131.5t-121.5 223.5t-42 321zM377 1761q-12 14 2 31l33 47q18 18 43 6l276 -131l266 129q16 8 25.5 10t19.5 -6l39 -43 q12 -10 13.5 -21t-15.5 -26l-258 -203q-29 -23 -52.5 -28.5t-37.5 -5.5q-16 0 -37.5 8t-46.5 26z" />
<glyph unicode="&#x10d;" horiz-adv-x="987" d="M92 526q0 129 34 234.5t96.5 180.5t152.5 116t203 41q84 0 159.5 -16.5t145.5 -55.5q31 -16 12 -47l-47 -98q-6 -12 -13.5 -17.5t-29.5 4.5q-47 20 -102.5 35t-120.5 15q-76 0 -130.5 -32t-89 -86.5t-51 -125t-16.5 -148.5q0 -76 13.5 -144.5t45 -119.5t88 -80.5 t142.5 -29.5q68 0 134 17t109 40q20 10 28.5 5t14.5 -17l48 -99q18 -31 -13 -47q-78 -45 -173 -59.5t-177 -14.5q-223 0 -343 138.5t-120 410.5zM205 1493q-14 18 2 31l45 41q18 18 43 4l264 -189l266 187q27 18 45 4l39 -35q12 -10 13.5 -20.5t-15.5 -26.5l-258 -268 q-25 -25 -44 -32t-46 -7q-23 0 -42 8t-42 31z" />
<glyph unicode="&#x10e;" horiz-adv-x="1396" d="M154 111v1214q0 59 25.5 85t84.5 26l375 2q160 0 279.5 -49.5t201.5 -142.5t123 -225t41 -294q0 -160 -37 -294t-113.5 -230.5t-194.5 -149.5t-280 -53h-395q-59 0 -84.5 25.5t-25.5 85.5zM274 1761q-12 14 2 31l33 47q18 18 43 6l277 -131l266 129q16 8 25.5 10t19.5 -6 l39 -43q12 -10 13 -21t-15 -26l-258 -203q-29 -23 -52.5 -28.5t-37.5 -5.5q-16 0 -38 8t-46 26zM369 193h266q125 0 208 39.5t133 110.5t70.5 168t20.5 212q0 109 -21.5 204t-71.5 165.5t-135 111.5t-210 41h-260v-1052z" />
<glyph unicode="&#x10f;" horiz-adv-x="1411" d="M92 520q0 115 29 219.5t90 184.5t155.5 127t225.5 47q43 0 103.5 -5.5t125.5 -21.5v393q0 23 8.5 28t28.5 5h129q18 0 27.5 -5t9.5 -28v-1372q0 -29 -27 -39q-111 -47 -223 -61.5t-203 -14.5q-131 0 -222 39t-148.5 110t-83 171t-25.5 223zM301 520q0 -203 80 -286.5 t223 -83.5q49 0 113.5 9t103.5 25v711q-72 18 -120 23.5t-95 5.5q-66 0 -121 -21.5t-96 -70t-64.5 -125t-23.5 -187.5zM1163 1028l31 391q2 12 9 24.5t28 12.5h178q23 0 32 -12t5 -25l-131 -385q-8 -23 -14.5 -30t-28.5 -7h-68q-45 0 -41 31z" />
<glyph unicode="&#x110;" horiz-adv-x="1396" d="M20 682v94q0 18 5.5 27.5t27.5 9.5h101v512q0 59 25.5 85t84.5 26l375 2q160 0 279.5 -49.5t201.5 -142.5t123 -225t41 -294q0 -160 -37 -294t-113.5 -230.5t-194.5 -149.5t-280 -53h-395q-59 0 -84.5 25.5t-25.5 85.5v534h-101q-23 0 -28 8.5t-5 28.5zM371 193h262 q125 0 208 39.5t133 110.5t70.5 168t20.5 212q0 109 -21.5 204t-71.5 165.5t-135 111.5t-210 41h-256v-432h303q23 0 28 -9t5 -28v-94q0 -20 -5.5 -28.5t-27.5 -8.5h-303v-452z" />
<glyph unicode="&#x111;" horiz-adv-x="1157" d="M92 520q0 115 29 219.5t90 184.5t155.5 127t225.5 47q43 0 103.5 -5.5t125.5 -21.5v143h-332q-18 0 -22 7.5t-4 23.5v60q0 16 4 23t22 7h332v129q0 23 8.5 28t28.5 5h129q18 0 27.5 -5t9.5 -28v-129h96q18 0 22.5 -7t4.5 -23v-60q0 -16 -4 -23.5t-23 -7.5h-96v-1122 q0 -29 -27 -39q-111 -47 -223 -61.5t-203 -14.5q-131 0 -222 39t-148.5 110t-83 171t-25.5 223zM301 520q0 -203 80 -286.5t223 -83.5q49 0 113.5 9t103.5 25v711q-72 18 -120 23.5t-95 5.5q-66 0 -121 -21.5t-96 -70t-64.5 -125t-23.5 -187.5z" />
<glyph unicode="&#x112;" horiz-adv-x="1204" d="M154 360v713q0 72 19.5 137.5t62.5 115.5t110.5 80t163.5 30h561q29 0 36 -12.5t7 -34.5v-99q0 -27 -7 -36t-36 -9h-561q-78 0 -111.5 -33.5t-33.5 -107.5v-252h639q27 0 33.5 -10.5t6.5 -36.5v-86q0 -23 -7 -35t-33 -12h-639v-340q0 -61 33.5 -100t111.5 -39h569 q29 0 36 -10.5t7 -37.5v-98q0 -23 -7 -35t-36 -12h-569q-104 0 -173 29.5t-110 79t-57 115t-16 136.5zM416 1616v86q0 18 5 27.5t28 9.5h497q23 0 28 -9.5t5 -27.5v-86q0 -20 -5 -28.5t-28 -8.5h-497q-23 0 -28 8t-5 29z" />
<glyph unicode="&#x113;" horiz-adv-x="1110" d="M92 532q0 135 37 240t101.5 177.5t151.5 110.5t189 38q117 0 202 -32t140.5 -90t82 -141t26.5 -184q0 -53 -14.5 -87t-37 -53t-54 -27.5t-64.5 -8.5h-557q2 -90 26.5 -151.5t67.5 -99.5t98.5 -55t118.5 -17q68 0 134.5 18t107.5 41q31 14 43 -12l49 -97q14 -33 -12 -47 q-78 -47 -166 -62.5t-170 -15.5q-236 0 -368 132.5t-132 422.5zM303 635h528q0 61 -11 114.5t-39.5 93.5t-79 63.5t-128.5 23.5q-63 0 -112 -25.5t-83 -67.5t-53.5 -94.5t-21.5 -107.5zM305 1313v86q0 18 5 27.5t28 9.5h498q23 0 27.5 -9.5t4.5 -27.5v-86q0 -20 -5 -28.5 t-27 -8.5h-498q-23 0 -28 8t-5 29z" />
<glyph unicode="&#x114;" horiz-adv-x="1204" d="M154 360v713q0 72 19.5 137.5t62.5 115.5t110.5 80t163.5 30h561q29 0 36 -12.5t7 -34.5v-99q0 -27 -7 -36t-36 -9h-561q-78 0 -111.5 -33.5t-33.5 -107.5v-252h639q27 0 33.5 -10.5t6.5 -36.5v-86q0 -23 -7 -35t-33 -12h-639v-340q0 -61 33.5 -100t111.5 -39h569 q29 0 36 -10.5t7 -37.5v-98q0 -23 -7 -35t-36 -12h-569q-104 0 -173 29.5t-110 79t-57 115t-16 136.5zM345 1767.5q-3 10.5 13 24.5l45 39q18 12 24.5 9t23.5 -15q61 -63 126.5 -101t122.5 -38q23 0 48.5 5t56.5 21.5t66.5 44t80.5 74.5q18 16 25.5 14t17.5 -10l45 -37 q18 -16 15.5 -26.5t-6.5 -16.5q-92 -121 -184.5 -173t-172.5 -52q-53 0 -101 18.5t-91 49t-80 70.5t-68 83q-4 6 -7 16.5z" />
<glyph unicode="&#x115;" horiz-adv-x="1110" d="M92 532q0 135 37 240t101.5 177.5t151.5 110.5t189 38q117 0 202 -32t140.5 -90t82 -141t26.5 -184q0 -53 -14.5 -87t-37 -53t-54 -27.5t-64.5 -8.5h-557q2 -90 26.5 -151.5t67.5 -99.5t98.5 -55t118.5 -17q68 0 134.5 18t107.5 41q31 14 43 -12l49 -97q14 -33 -12 -47 q-78 -47 -166 -62.5t-170 -15.5q-236 0 -368 132.5t-132 422.5zM212 1435.5q-3 10.5 13 24.5l45 39q18 12 24.5 9t22.5 -15q61 -63 127 -101t123 -38q23 0 48.5 5t56 21.5t66.5 44t81 74.5q18 16 25.5 14t17.5 -10l45 -37q18 -16 15.5 -26t-7.5 -17q-92 -121 -184 -173 t-172 -52q-53 0 -101 18.5t-91 49t-80 70.5t-68 83q-4 6 -7 16.5zM303 635h528q0 61 -11 114.5t-39.5 93.5t-79 63.5t-128.5 23.5q-63 0 -112 -25.5t-83 -67.5t-53.5 -94.5t-21.5 -107.5z" />
<glyph unicode="&#x116;" horiz-adv-x="1204" d="M154 360v713q0 72 19.5 137.5t62.5 115.5t110.5 80t163.5 30h561q29 0 36 -12.5t7 -34.5v-99q0 -27 -7 -36t-36 -9h-561q-78 0 -111.5 -33.5t-33.5 -107.5v-252h639q27 0 33.5 -10.5t6.5 -36.5v-86q0 -23 -7 -35t-33 -12h-639v-340q0 -61 33.5 -100t111.5 -39h569 q29 0 36 -10.5t7 -37.5v-98q0 -23 -7 -35t-36 -12h-569q-104 0 -173 29.5t-110 79t-57 115t-16 136.5zM539 1659q0 51 37.5 89t91.5 38q51 0 90 -38t39 -89t-39 -89t-90 -38q-53 0 -91 38t-38 89z" />
<glyph unicode="&#x117;" horiz-adv-x="1110" d="M92 532q0 135 37 240t101.5 177.5t151.5 110.5t189 38q117 0 202 -32t140.5 -90t82 -141t26.5 -184q0 -53 -14.5 -87t-37 -53t-54 -27.5t-64.5 -8.5h-557q2 -90 26.5 -151.5t67.5 -99.5t98.5 -55t118.5 -17q68 0 134.5 18t107.5 41q31 14 43 -12l49 -97q14 -33 -12 -47 q-78 -47 -166 -62.5t-170 -15.5q-236 0 -368 132.5t-132 422.5zM303 635h528q0 61 -11 114.5t-39.5 93.5t-79 63.5t-128.5 23.5q-63 0 -112 -25.5t-83 -67.5t-53.5 -94.5t-21.5 -107.5zM440 1372q0 51 38 89t91 38q51 0 90 -38t39 -89t-38.5 -89t-90.5 -38q-53 0 -91 38 t-38 89z" />
<glyph unicode="&#x118;" horiz-adv-x="1204" d="M154 360v713q0 72 19.5 137.5t62.5 115.5t110.5 80t163.5 30h561q29 0 36 -12.5t7 -34.5v-99q0 -27 -7 -36t-36 -9h-561q-78 0 -111.5 -33.5t-33.5 -107.5v-252h639q27 0 33.5 -10.5t6.5 -36.5v-86q0 -23 -7 -35t-33 -12h-639v-340q0 -61 33.5 -100t111.5 -39h569 q29 0 36 -10.5t7 -37.5v-98q0 -37 -20 -45q-68 -74 -98.5 -139.5t-30.5 -108.5q0 -41 26.5 -54t75.5 -13q14 0 43 5t58 11q16 4 22 3t10 -17l15 -43q6 -16 1 -23.5t-16 -11.5q-29 -14 -84 -27.5t-110 -13.5q-106 0 -151.5 44t-47.5 107q-2 74 42 152t116 127h-463 q-104 0 -173 29.5t-110 79t-57 115t-16 136.5z" />
<glyph unicode="&#x119;" horiz-adv-x="1110" d="M92 532q0 135 37 240t101.5 177.5t151.5 110.5t189 38q117 0 202 -32t140.5 -90t82 -141t26.5 -184q0 -53 -14.5 -87t-37 -53t-54 -27.5t-64.5 -8.5h-557q2 -90 26.5 -151.5t67.5 -99.5t98.5 -55t118.5 -17q68 0 134.5 18t107.5 41q31 14 43 -12l49 -97q12 -33 -8 -45 q-66 -74 -95.5 -137t-29.5 -106q0 -41 26.5 -54.5t75.5 -13.5q14 0 43 5t58 11q16 4 22 3t10 -17l15 -43q6 -16 1 -23.5t-16 -11.5q-29 -14 -84 -27.5t-110 -13.5q-106 0 -151.5 44t-47.5 108q-2 53 20.5 106.5t59.5 100.5q-35 -4 -69.5 -7.5t-67.5 -3.5q-236 0 -368 132.5 t-132 422.5zM303 635h528q0 61 -11 114.5t-39.5 93.5t-79 63.5t-128.5 23.5q-63 0 -112 -25.5t-83 -67.5t-53.5 -94.5t-21.5 -107.5z" />
<glyph unicode="&#x11a;" horiz-adv-x="1204" d="M154 360v713q0 72 19.5 137.5t62.5 115.5t110.5 80t163.5 30h561q29 0 36 -12.5t7 -34.5v-99q0 -27 -7 -36t-36 -9h-561q-78 0 -111.5 -33.5t-33.5 -107.5v-252h639q27 0 33.5 -10.5t6.5 -36.5v-86q0 -23 -7 -35t-33 -12h-639v-340q0 -61 33.5 -100t111.5 -39h569 q29 0 36 -10.5t7 -37.5v-98q0 -23 -7 -35t-36 -12h-569q-104 0 -173 29.5t-110 79t-57 115t-16 136.5zM330 1761q-12 14 2 31l33 47q18 18 43 6l276 -131l266 129q16 8 25.5 10t19.5 -6l39 -43q12 -10 13.5 -21t-15.5 -26l-258 -203q-29 -23 -52.5 -28.5t-37.5 -5.5 q-16 0 -37.5 8t-46.5 26z" />
<glyph unicode="&#x11b;" horiz-adv-x="1110" d="M92 532q0 135 37 240t101.5 177.5t151.5 110.5t189 38q117 0 202 -32t140.5 -90t82 -141t26.5 -184q0 -53 -14.5 -87t-37 -53t-54 -27.5t-64.5 -8.5h-557q2 -90 26.5 -151.5t67.5 -99.5t98.5 -55t118.5 -17q68 0 134.5 18t107.5 41q31 14 43 -12l49 -97q14 -33 -12 -47 q-78 -47 -166 -62.5t-170 -15.5q-236 0 -368 132.5t-132 422.5zM205 1489q-14 18 2 31l45 41q18 18 43 4l264 -189l266 187q27 18 45 4l39 -35q12 -10 13.5 -20.5t-15.5 -26.5l-258 -268q-25 -25 -44 -32t-46 -7q-23 0 -42 8t-42 31zM303 635h528q0 61 -11 114.5t-39.5 93.5 t-79 63.5t-128.5 23.5q-63 0 -112 -25.5t-83 -67.5t-53.5 -94.5t-21.5 -107.5z" />
<glyph unicode="&#x11c;" horiz-adv-x="1347" d="M113 700q0 172 44 311.5t124.5 238t198.5 151.5t265 53q86 0 189.5 -15.5t208.5 -68.5q12 -6 17 -17.5t-7 -33.5l-51 -117q-8 -14 -15.5 -19t-25.5 3q-63 27 -147.5 43t-163.5 16q-117 0 -198 -47t-130 -124t-70.5 -175t-21.5 -203q0 -109 17.5 -204t64.5 -166.5 t129 -113.5t211 -42q14 0 43.5 1t66.5 5t78 12.5t78 22.5v438q-14 2 -26.5 2h-26.5q-70 2 -151 -12t-159 -49q-23 -10 -34 -11t-21 17l-43 104q-8 16 -5 27.5t19 22.5q68 43 165.5 67.5t189.5 24.5q53 0 85.5 -2t63.5 -6q88 -16 119 -55.5t31 -127.5v-508q0 -39 -31 -59 q-55 -35 -121.5 -55.5t-131 -31.5t-120 -15.5t-90.5 -4.5q-145 0 -260 43t-194.5 132.5t-121.5 225.5t-42 322zM364.5 1591q-2.5 8 8.5 17l260 209q45 37 84 36q14 0 36.5 -5t53.5 -31l250 -209q25 -18 4 -43l-33 -39q-8 -10 -18.5 -7t-26.5 11l-268 127l-266 -131 q-12 -6 -20.5 -5t-18.5 11l-37 43q-6 8 -8.5 16z" />
<glyph unicode="&#x11d;" horiz-adv-x="1157" d="M92 522q0 125 30 230.5t92 182.5t157.5 119t226.5 42q98 0 203.5 -15.5t197.5 -54.5q27 -10 27 -41v-895q0 -137 -32.5 -232.5t-98.5 -160t-164 -100t-231 -54.5q-16 -2 -24.5 2t-12.5 21l-17 129q0 25 23 29q88 12 153.5 32.5t109.5 52t65.5 80t21.5 115.5v10 q-66 -18 -137.5 -28.5t-124.5 -10.5q-121 0 -209 40t-144.5 113t-84 173t-27.5 221zM262 1257l270 273q23 23 42.5 31t41.5 8q27 0 46.5 -7.5t44.5 -31.5l258 -268q27 -27 2 -48l-39 -34q-18 -14 -45 4l-267 186l-266 -192q-25 -14 -43 4l-43 45q-14 14 -2 30zM297 535 q0 -193 74.5 -289t210.5 -96q37 0 101.5 6t139.5 28v711q-55 16 -113.5 23.5t-105.5 7.5q-68 0 -125 -21.5t-97 -69t-62.5 -121t-22.5 -179.5z" />
<glyph unicode="&#x11e;" horiz-adv-x="1347" d="M113 700q0 172 44 311.5t124.5 238t198.5 151.5t265 53q86 0 189.5 -15.5t208.5 -68.5q12 -6 17 -17.5t-7 -33.5l-51 -117q-8 -14 -15.5 -19t-25.5 3q-63 27 -147.5 43t-163.5 16q-117 0 -198 -47t-130 -124t-70.5 -175t-21.5 -203q0 -109 17.5 -204t64.5 -166.5 t129 -113.5t211 -42q14 0 43.5 1t66.5 5t78 12.5t78 22.5v438q-14 2 -26.5 2h-26.5q-70 2 -151 -12t-159 -49q-23 -10 -34 -11t-21 17l-43 104q-8 16 -5 27.5t19 22.5q68 43 165.5 67.5t189.5 24.5q53 0 85.5 -2t63.5 -6q88 -16 119 -55.5t31 -127.5v-508q0 -39 -31 -59 q-55 -35 -121.5 -55.5t-131 -31.5t-120 -15.5t-90.5 -4.5q-145 0 -260 43t-194.5 132.5t-121.5 225.5t-42 322zM370 1767.5q-3 10.5 13 24.5l45 39q18 12 24.5 9t22.5 -15q61 -63 127 -101t123 -38q23 0 48.5 5t56 21.5t66.5 44t81 74.5q18 16 25.5 14t17.5 -10l45 -37 q18 -16 15 -26.5t-7 -16.5q-92 -121 -184 -173t-172 -52q-53 0 -101.5 18.5t-91.5 49t-79.5 70.5t-67.5 83q-4 6 -7 16.5z" />
<glyph unicode="&#x11f;" horiz-adv-x="1157" d="M92 522q0 125 30 230.5t92 182.5t157.5 119t226.5 42q98 0 203.5 -15.5t197.5 -54.5q27 -10 27 -41v-895q0 -137 -32.5 -232.5t-98.5 -160t-164 -100t-231 -54.5q-16 -2 -24.5 2t-12.5 21l-17 129q0 25 23 29q88 12 153.5 32.5t109.5 52t65.5 80t21.5 115.5v10 q-66 -18 -137.5 -28.5t-124.5 -10.5q-121 0 -209 40t-144.5 113t-84 173t-27.5 221zM282 1452q-3 10 13 25l45 39q18 12 24.5 9t22.5 -16q61 -63 127 -101t123 -38q23 0 48.5 5t56 21.5t66.5 44t81 75.5q18 16 25.5 14t17.5 -10l45 -37q18 -16 15 -26.5t-7 -16.5 q-92 -121 -184 -173.5t-172 -52.5q-53 0 -101.5 18.5t-91.5 49.5t-80 71t-67 83q-4 6 -7 16zM297 535q0 -193 74.5 -289t210.5 -96q37 0 101.5 6t139.5 28v711q-55 16 -113.5 23.5t-105.5 7.5q-68 0 -125 -21.5t-97 -69t-62.5 -121t-22.5 -179.5z" />
<glyph unicode="&#x120;" horiz-adv-x="1347" d="M113 700q0 172 44 311.5t124.5 238t198.5 151.5t265 53q86 0 189.5 -15.5t208.5 -68.5q12 -6 17 -17.5t-7 -33.5l-51 -117q-8 -14 -15.5 -19t-25.5 3q-63 27 -147.5 43t-163.5 16q-117 0 -198 -47t-130 -124t-70.5 -175t-21.5 -203q0 -109 17.5 -204t64.5 -166.5 t129 -113.5t211 -42q14 0 43.5 1t66.5 5t78 12.5t78 22.5v438q-14 2 -26.5 2h-26.5q-70 2 -151 -12t-159 -49q-23 -10 -34 -11t-21 17l-43 104q-8 16 -5 27.5t19 22.5q68 43 165.5 67.5t189.5 24.5q53 0 85.5 -2t63.5 -6q88 -16 119 -55.5t31 -127.5v-508q0 -39 -31 -59 q-55 -35 -121.5 -55.5t-131 -31.5t-120 -15.5t-90.5 -4.5q-145 0 -260 43t-194.5 132.5t-121.5 225.5t-42 322zM612 1659q0 51 38 89t91 38q51 0 90 -38t39 -89t-38.5 -89t-90.5 -38q-53 0 -91 38t-38 89z" />
<glyph unicode="&#x121;" horiz-adv-x="1157" d="M92 522q0 125 30 230.5t92 182.5t157.5 119t226.5 42q98 0 203.5 -15.5t197.5 -54.5q27 -10 27 -41v-895q0 -137 -32.5 -232.5t-98.5 -160t-164 -100t-231 -54.5q-16 -2 -24.5 2t-12.5 21l-17 129q0 25 23 29q88 12 153.5 32.5t109.5 52t65.5 80t21.5 115.5v10 q-66 -18 -137.5 -28.5t-124.5 -10.5q-121 0 -209 40t-144.5 113t-84 173t-27.5 221zM297 535q0 -193 74.5 -289t210.5 -96q37 0 101.5 6t139.5 28v711q-55 16 -113.5 23.5t-105.5 7.5q-68 0 -125 -21.5t-97 -69t-62.5 -121t-22.5 -179.5zM496 1384q0 51 37.5 89t91.5 38 q51 0 90 -38t39 -89t-39 -89t-90 -38q-53 0 -91 38t-38 89z" />
<glyph unicode="&#x122;" horiz-adv-x="1347" d="M113 700q0 172 44 311.5t124.5 238t198.5 151.5t265 53q86 0 189.5 -15.5t208.5 -68.5q12 -6 17 -17.5t-7 -33.5l-51 -117q-8 -14 -15.5 -19t-25.5 3q-63 27 -147.5 43t-163.5 16q-117 0 -198 -47t-130 -124t-70.5 -175t-21.5 -203q0 -109 17.5 -204t64.5 -166.5 t129 -113.5t211 -42q14 0 43.5 1t66.5 5t78 12.5t78 22.5v438q-14 2 -26.5 2h-26.5q-70 2 -151 -12t-159 -49q-23 -10 -34 -11t-21 17l-43 104q-8 16 -5 27.5t19 22.5q68 43 165.5 67.5t189.5 24.5q53 0 85.5 -2t63.5 -6q88 -16 119 -55.5t31 -127.5v-508q0 -39 -31 -59 q-55 -35 -121.5 -55.5t-131 -31.5t-120 -15.5t-90.5 -4.5q-145 0 -260 43t-194.5 132.5t-121.5 225.5t-42 322zM606 -569l31 391q2 12 9 24.5t28 12.5h178q23 0 32 -12.5t5 -24.5l-131 -385q-8 -23 -14.5 -30t-28.5 -7h-68q-45 0 -41 31z" />
<glyph unicode="&#x123;" horiz-adv-x="1157" d="M92 522q0 125 30 230.5t92 182.5t157.5 119t226.5 42q98 0 203.5 -15.5t197.5 -54.5q27 -10 27 -41v-895q0 -137 -32.5 -232.5t-98.5 -160t-164 -100t-231 -54.5q-16 -2 -24.5 2t-12.5 21l-17 129q0 25 23 29q88 12 153.5 32.5t109.5 52t65.5 80t21.5 115.5v10 q-66 -18 -137.5 -28.5t-124.5 -10.5q-121 0 -209 40t-144.5 113t-84 173t-27.5 221zM297 535q0 -193 74.5 -289t210.5 -96q37 0 101.5 6t139.5 28v711q-55 16 -113.5 23.5t-105.5 7.5q-68 0 -125 -21.5t-97 -69t-62.5 -121t-22.5 -179.5zM487 1233l107 350q8 18 14 25.5 t25 7.5h69q39 0 37 -29l-28 -354q0 -10 -7.5 -21.5t-25.5 -11.5h-158q-20 0 -28.5 11.5t-4.5 21.5z" />
<glyph unicode="&#x124;" horiz-adv-x="1421" d="M154 43v1348q0 29 12 36t35 7h118q27 0 37.5 -7.5t10.5 -35.5v-545h688v545q0 29 12 36t35 7h119q27 0 37 -7.5t10 -35.5v-1348q0 -29 -10.5 -36t-36.5 -7h-119q-23 0 -35 7t-12 36v621h-688v-621q0 -29 -10.5 -36t-37.5 -7h-118q-23 0 -35 7t-12 36zM354 1601.5 q-2 8.5 8 16.5l261 209q45 37 84 37q14 0 36.5 -5.5t53.5 -31.5l250 -209q25 -18 4 -43l-33 -39q-8 -10 -18.5 -7t-26.5 11l-268 127l-267 -131q-12 -6 -20 -5t-19 11l-37 43q-6 8 -8 16.5z" />
<glyph unicode="&#x125;" horiz-adv-x="1163" d="M-108.5 1591q-2.5 8 8.5 17l260 209q45 37 84 36q14 0 36.5 -5t53.5 -31l250 -209q25 -18 4 -43l-33 -39q-8 -10 -18.5 -7t-26.5 11l-268 127l-267 -131q-12 -6 -20 -5t-18 11l-37 43q-6 8 -8.5 16zM133 33v1431q0 23 9.5 28t27.5 5h127q20 0 28.5 -5t8.5 -28v-409 q61 23 134 33t132 10q115 0 197 -34t134 -97.5t76.5 -154.5t24.5 -204v-575q0 -23 -9 -28t-28 -5h-129q-20 0 -28.5 5t-8.5 28v573q0 315 -264 316q-59 0 -121.5 -8.5t-109.5 -28.5v-852q0 -23 -8.5 -28t-28.5 -5h-127q-18 0 -27.5 5t-9.5 28z" />
<glyph unicode="&#x126;" horiz-adv-x="1421" d="M35 1135v59q0 16 4 23.5t22 7.5h93v176q0 23 9 28t27 5h144q20 0 28.5 -5.5t8.5 -27.5v-176h686v176q0 23 9 28t28 5h137q20 0 28.5 -5.5t8.5 -27.5v-176h75q18 0 22.5 -7.5t4.5 -23.5v-59q0 -16 -4 -23.5t-23 -7.5h-75v-1071q0 -23 -8.5 -28t-28.5 -5h-137 q-18 0 -27.5 5t-9.5 28v629h-686v-629q0 -23 -8.5 -28t-28.5 -5h-144q-18 0 -27 5t-9 28v1071h-93q-18 0 -22 7t-4 24zM371 846h686v258h-686v-258z" />
<glyph unicode="&#x127;" horiz-adv-x="1163" d="M25 1239v59q0 16 4 23.5t22 7.5h82v135q0 23 9.5 28t27.5 5h127q20 0 28.5 -5t8.5 -28v-135h409q18 0 22.5 -7t4.5 -24v-59q0 -16 -4 -23.5t-23 -7.5h-409v-217q61 23 134 33t132 10q115 0 197 -33.5t134 -97t76.5 -155t24.5 -203.5v-512q0 -23 -9 -28t-28 -5h-129 q-20 0 -28.5 5t-8.5 28v510q0 315 -264 315q-59 0 -121.5 -8t-109.5 -29v-788q0 -23 -8.5 -28t-28.5 -5h-127q-18 0 -27.5 5t-9.5 28v1175h-82q-18 0 -22 7.5t-4 23.5z" />
<glyph unicode="&#x128;" horiz-adv-x="563" d="M-73.5 1611.5q-6.5 6.5 1.5 22.5q35 61 88.5 106.5t133.5 45.5q37 0 69.5 -12.5t64 -27.5t61.5 -27.5t58 -12.5q31 0 54.5 16.5t34.5 40.5q8 16 15 18.5t23 -1.5l80 -23q35 -6 25 -31q-35 -76 -84 -119.5t-133 -43.5q-37 0 -71 11t-67.5 24.5t-66.5 25.5t-68 12 q-27 0 -48 -16t-34 -39q-6 -10 -15 -15t-28 3l-69 30q-18 6 -24.5 12.5zM176 43v1348q0 29 12.5 36t34.5 7h119q27 0 37 -7.5t10 -35.5v-1348q0 -29 -10 -36t-37 -7h-119q-23 0 -35 7t-12 36z" />
<glyph unicode="&#x129;" horiz-adv-x="561" d="M-69.5 1325q-6.5 6 1.5 23q35 61 88.5 106t133.5 45q37 0 69.5 -12t64 -27.5t61.5 -28t59 -12.5q31 0 54 16.5t34 41.5q8 16 15 18t24 -2l79 -23q35 -6 25 -30q-35 -76 -84 -120t-133 -44q-37 0 -71 11t-67.5 24.5t-66.5 26t-67 12.5q-27 0 -48.5 -16.5t-33.5 -39.5 q-6 -10 -15.5 -15t-27.5 3l-70 31q-18 6 -24.5 12zM180 33v1009q0 23 9.5 28t27.5 5h127q20 0 28.5 -5t8.5 -28v-1009q0 -23 -8 -28t-29 -5h-127q-18 0 -27.5 5t-9.5 28z" />
<glyph unicode="&#x12a;" horiz-adv-x="563" d="M-2 1640v86q0 18 5 27.5t28 9.5h497q23 0 28 -9t5 -28v-86q0 -20 -5 -28t-28 -8h-497q-23 0 -28 8t-5 28zM176 43v1348q0 29 12.5 36t34.5 7h119q27 0 37 -7.5t10 -35.5v-1348q0 -29 -10 -36t-37 -7h-119q-23 0 -35 7t-12 36z" />
<glyph unicode="&#x12b;" horiz-adv-x="561" d="M0 1241v86q0 18 5 27.5t28 9.5h497q23 0 28 -9t5 -28v-86q0 -20 -5 -28.5t-28 -8.5h-497q-23 0 -28 8.5t-5 28.5zM180 33v1009q0 23 9.5 28t27.5 5h127q20 0 28.5 -5t8.5 -28v-1009q0 -23 -8 -28t-29 -5h-127q-18 0 -27.5 5t-9.5 28z" />
<glyph unicode="&#x12c;" horiz-adv-x="563" d="M-73 1747q-3 10 14 25l45 38q18 12 24 9.5t23 -15.5q61 -63 126.5 -101t123.5 -38q23 0 48 5t56 21.5t66.5 44t81.5 74.5q18 16 25 14.5t18 -9.5l45 -37q18 -16 15 -26.5t-7 -16.5q-92 -121 -184.5 -173.5t-172.5 -52.5q-53 0 -101 18.5t-91 49.5t-80 71t-68 83 q-4 6 -7 16zM176 43v1348q0 29 12.5 36t34.5 7h119q27 0 37 -7.5t10 -35.5v-1348q0 -29 -10 -36t-37 -7h-119q-23 0 -35 7t-12 36z" />
<glyph unicode="&#x12d;" horiz-adv-x="561" d="M-70.5 1427.5q-3.5 10.5 13.5 24.5l45 39q18 12 24 9t23 -15q61 -63 126.5 -101t123.5 -38q23 0 48 5t56 21.5t67 44t81 74.5q18 16 25 14t18 -10l45 -37q18 -16 15 -26.5t-7 -16.5q-92 -121 -184.5 -173t-172.5 -52q-53 0 -101 18.5t-91 49t-80 70.5t-67 83 q-4 6 -7.5 16.5zM180 33v1009q0 23 9.5 28t27.5 5h127q20 0 28.5 -5t8.5 -28v-1009q0 -23 -8 -28t-29 -5h-127q-18 0 -27.5 5t-9.5 28z" />
<glyph unicode="&#x12e;" horiz-adv-x="563" d="M86 -281q-2 76 43 155t117 126h-23q-23 0 -35 7t-12 36v1348q0 29 12.5 36t34.5 7h119q27 0 37 -7.5t10 -35.5v-1348q0 -25 -10 -35q0 -2 -4 -6q-70 -76 -100.5 -141.5t-30.5 -108.5q0 -41 26.5 -54t75.5 -13q14 0 43 5t57 11q16 4 22.5 3t10.5 -17l15 -43 q6 -16 0.5 -23.5t-15.5 -11.5q-29 -14 -84 -27.5t-110 -13.5q-106 0 -151.5 44t-47.5 107z" />
<glyph unicode="&#x12f;" horiz-adv-x="520" d="M76 -274q-2 72 41 148.5t110 125.5h-16q-18 0 -27.5 5t-9.5 28v1009q0 23 9.5 28t27.5 5h127q20 0 28.5 -5t8.5 -28v-1009q0 -27 -19 -33q-66 -72 -94.5 -135.5t-28.5 -106.5q0 -41 27 -54t76 -13q14 0 43 5t57 11q16 4 22.5 3t10.5 -17l14 -43q6 -16 1 -23.5t-15 -11.5 q-29 -14 -84 -27.5t-111 -13.5q-106 0 -151 44t-47 108zM143 1356q0 55 39 94t94 39t94.5 -39t39.5 -94t-39 -94t-95 -39q-55 0 -94 38.5t-39 94.5z" />
<glyph unicode="&#x130;" horiz-adv-x="563" d="M150 1753q0 51 37.5 89t91.5 38q51 0 90 -38t39 -89t-39 -89t-90 -38q-53 0 -91 38t-38 89zM176 43v1348q0 29 12.5 36t34.5 7h119q27 0 37 -7.5t10 -35.5v-1348q0 -29 -10 -36t-37 -7h-119q-23 0 -35 7t-12 36z" />
<glyph unicode="&#x131;" horiz-adv-x="561" d="M180 33v1009q0 23 9.5 28t27.5 5h127q20 0 28.5 -5t8.5 -28v-1009q0 -23 -8 -28t-29 -5h-127q-18 0 -27.5 5t-9.5 28z" />
<glyph unicode="&#x132;" horiz-adv-x="1591" d="M156 43v1348q0 29 12 36t35 7h119q27 0 37 -7.5t10 -35.5v-1348q0 -29 -10.5 -36t-36.5 -7h-119q-23 0 -35 7t-12 36zM454 97q-5 9 7 34l53 107q14 29 49 10q68 -33 158 -55.5t184 -22.5q176 0 250 101.5t74 301.5l-2 818q0 29 12 36t35 7h119q27 0 37 -7.5t10 -35.5 v-209v-150.5t-1 -115t-1 -101.5v-110.5v-141.5q0 -137 -31 -245.5t-97.5 -184.5t-168 -116t-242.5 -40q-45 0 -98 5.5t-110.5 16.5t-113 30.5t-104.5 48.5q-14 10 -19 19z" />
<glyph unicode="&#x133;" horiz-adv-x="1032" d="M133 1356q0 55 39 94t94 39t94 -39t39 -94t-38.5 -94t-94.5 -39q-55 0 -94 38.5t-39 94.5zM164 33v1009q0 23 9 28t28 5h127q20 0 28.5 -5t8.5 -28v-1009q0 -23 -8.5 -28t-28.5 -5h-127q-18 0 -27.5 5t-9.5 28zM430 -311q-4 16 2 23t21 14q70 33 111.5 75.5t64 93 t30 106.5t7.5 116v925q0 23 9 28t27 5h129q20 0 28.5 -5t8.5 -28v-882q0 -147 -27.5 -252t-75.5 -175.5t-114.5 -113.5t-142.5 -70q-29 -8 -37 17zM633 1356q0 55 39 94t94 39t94 -39t39 -94t-39 -94t-94 -39t-94 38.5t-39 94.5z" />
<glyph unicode="&#x134;" horiz-adv-x="1161" d="M13.5 97q-5.5 9 6.5 34l54 107q14 29 49 10q68 -33 158 -55.5t184 -22.5q176 0 249.5 101.5t73.5 301.5l-2 818q0 29 12.5 36t35.5 7h118q27 0 37 -7.5t10 -35.5v-209v-150.5t-1 -115t-1 -101.5v-110.5v-141.5q0 -137 -30.5 -245.5t-97 -184.5t-168 -116t-242.5 -40 q-45 0 -98.5 5.5t-110.5 16.5t-112.5 30.5t-104.5 48.5q-14 10 -19.5 19zM537 1591q-2 8 8 17l260 209q45 37 84 36q14 0 36.5 -5t53.5 -31l250 -209q25 -18 4 -43l-33 -39q-8 -10 -18.5 -7t-26.5 11l-268 127l-266 -131q-12 -6 -20.5 -5t-18.5 11l-37 43q-6 8 -8 16z" />
<glyph unicode="&#x135;" horiz-adv-x="628" d="M-27 1257l271 273q23 23 42 31t42 8q27 0 46 -7.5t44 -31.5l258 -268q27 -27 2 -48l-39 -34q-18 -14 -45 4l-266 186l-267 -192q-25 -14 -43 4l-43 45q-14 14 -2 30zM-2 -311q-4 16 2 23t20 14q70 33 112 75.5t64.5 93t29.5 106.5t7 116v925q0 23 9.5 28t27.5 5h129 q20 0 28.5 -5t8.5 -28v-882q0 -147 -27.5 -252t-75.5 -175.5t-114.5 -113.5t-142.5 -70q-29 -8 -37 17z" />
<glyph unicode="&#x136;" horiz-adv-x="1308" d="M154 43v1348q0 29 12 36t35 7h114q27 0 37 -7.5t10 -35.5v-668l9 -4l213 268l346 420q10 10 27.5 18.5t41.5 8.5h175q18 0 23 -10.5t-5 -22.5l-395 -481l493 -875q10 -20 5 -32.5t-25 -12.5h-148q-35 0 -51 6t-33 35l-389 702l-287 -356v-344q0 -29 -10 -36t-37 -7h-114 q-23 0 -35 7t-12 36zM522 -508l31 391q2 12 9 24.5t28 12.5h178q23 0 32 -12t5 -25l-131 -385q-8 -23 -14.5 -30t-28.5 -7h-68q-45 0 -41 31z" />
<glyph unicode="&#x137;" horiz-adv-x="1032" d="M131 33v1431q0 23 9.5 28t27.5 5h127q20 0 28.5 -5t8.5 -28v-858l8 -4l385 457q6 8 13 12t26 4h180q10 0 13.5 -9t-3.5 -17l-272 -328l315 -696q4 -8 2 -16.5t-18 -8.5h-152q-23 0 -32 5t-15 18l-239 536l-211 -242v-284q0 -23 -8.5 -28t-28.5 -5h-127q-18 0 -27.5 5 t-9.5 28zM356 -569l31 391q2 12 9 24.5t28 12.5h178q23 0 32 -12.5t5 -24.5l-131 -385q-8 -23 -14.5 -30t-28.5 -7h-68q-45 0 -41 31z" />
<glyph unicode="&#x138;" horiz-adv-x="1019" d="M131 33v1009q0 23 9.5 28t27.5 5h127q20 0 28.5 -5t8.5 -28v-442l10 -4l385 463q6 8 13.5 12t25.5 4h178q10 0 13.5 -9t-3.5 -17l-333 -394l376 -630q4 -8 2 -16.5t-18 -8.5h-162q-23 0 -31 5t-16 18l-278 485l-162 -191v-284q0 -23 -8.5 -28t-28.5 -5h-127 q-18 0 -27.5 5t-9.5 28z" />
<glyph unicode="&#x139;" horiz-adv-x="1142" d="M154 360v1035q0 29 12 36t35 7h116q27 0 37.5 -7.5t10.5 -35.5v-1047q0 -156 157 -155h568q23 0 27.5 -9.5t4.5 -27.5v-117q0 -20 -5 -29.5t-27 -9.5h-586q-102 0 -169 29.5t-108 80t-57 115t-16 135.5zM194 1615.5q1 8.5 17 20.5l295 217q10 8 20.5 10.5t24.5 -14.5 l94 -131q12 -12 9 -21t-13 -14l-348 -155q-20 -8 -30.5 -5t-20.5 13l-39 59q-10 12 -9 20.5z" />
<glyph unicode="&#x13a;" horiz-adv-x="585" d="M154 188v1276q0 23 8 28t28 5h132q20 0 28 -5t8 -28v-1220q0 -55 15.5 -72.5t52.5 -17.5q18 0 37.5 1t36.5 3q16 2 22 -2t8 -21l13 -90q2 -18 -1 -25.5t-22 -17.5q-39 -16 -86 -20.5t-82 -4.5q-109 0 -153.5 50.5t-44.5 160.5zM177 1615.5q1 8.5 18 20.5l294 217 q10 8 20.5 10.5t25.5 -14.5l94 -131q12 -12 9 -21t-13 -14l-349 -155q-20 -8 -30 -5t-21 13l-39 59q-10 12 -9 20.5z" />
<glyph unicode="&#x13b;" horiz-adv-x="1142" d="M154 360v1035q0 29 12 36t35 7h116q27 0 37.5 -7.5t10.5 -35.5v-1047q0 -156 157 -155h568q23 0 27.5 -9.5t4.5 -27.5v-117q0 -20 -5 -29.5t-27 -9.5h-586q-102 0 -169 29.5t-108 80t-57 115t-16 135.5zM532 -569l31 391q2 12 9.5 24.5t27.5 12.5h178q23 0 32 -12.5 t5 -24.5l-131 -385q-8 -23 -14 -30t-29 -7h-68q-45 0 -41 31z" />
<glyph unicode="&#x13c;" horiz-adv-x="585" d="M141 -569l31 391q2 12 9 24.5t28 12.5h178q23 0 32 -12.5t5 -24.5l-131 -385q-8 -23 -14.5 -30t-28.5 -7h-68q-45 0 -41 31zM154 188v1276q0 23 8 28t28 5h132q20 0 28 -5t8 -28v-1220q0 -55 15.5 -72.5t52.5 -17.5q18 0 37.5 1t36.5 3q16 2 22 -2t8 -21l13 -90 q2 -18 -1 -25.5t-22 -17.5q-39 -16 -86 -20.5t-82 -4.5q-109 0 -153.5 50.5t-44.5 160.5z" />
<glyph unicode="&#x13d;" horiz-adv-x="1142" d="M154 360v1035q0 29 12 36t35 7h116q27 0 37.5 -7.5t10.5 -35.5v-1047q0 -156 157 -155h568q23 0 27.5 -9.5t4.5 -27.5v-117q0 -20 -5 -29.5t-27 -9.5h-586q-102 0 -169 29.5t-108 80t-57 115t-16 135.5zM731 1004l31 391q2 12 9 24.5t28 12.5h178q23 0 32 -12.5t5 -24.5 l-131 -385q-8 -23 -14.5 -30t-28.5 -7h-68q-45 0 -41 31z" />
<glyph unicode="&#x13e;" horiz-adv-x="747" d="M154 188v1276q0 23 8 28t28 5h132q20 0 28 -5t8 -28v-1220q0 -55 15.5 -72.5t52.5 -17.5q18 0 37.5 1t36.5 3q16 2 22 -2t8 -21l13 -90q2 -18 -1 -25.5t-22 -17.5q-39 -16 -86 -20.5t-82 -4.5q-109 0 -153.5 50.5t-44.5 160.5zM508 1028l31 391q2 12 9 24.5t27 12.5h179 q23 0 32 -12t5 -25l-132 -385q-8 -23 -14 -30t-29 -7h-67q-45 0 -41 31z" />
<glyph unicode="&#x13f;" horiz-adv-x="1142" d="M154 360v1035q0 29 12 36t35 7h116q27 0 37.5 -7.5t10.5 -35.5v-1047q0 -156 157 -155h568q23 0 27.5 -9.5t4.5 -27.5v-117q0 -20 -5 -29.5t-27 -9.5h-586q-102 0 -169 29.5t-108 80t-57 115t-16 135.5zM682 770q0 51 38 89t91 38q51 0 90 -38t39 -89t-39 -89t-90 -38 q-53 0 -91 38t-38 89z" />
<glyph unicode="&#x140;" horiz-adv-x="735" d="M154 188v1276q0 23 8 28t28 5h132q20 0 28 -5t8 -28v-1220q0 -55 15.5 -72.5t52.5 -17.5q18 0 37.5 1t36.5 3q16 2 22 -2t8 -21l13 -90q2 -18 -1 -25.5t-22 -17.5q-39 -16 -86 -20.5t-82 -4.5q-109 0 -153.5 50.5t-44.5 160.5zM492 791q0 51 37.5 89t91.5 38q51 0 90 -38 t39 -89t-39 -89t-90 -38q-53 0 -91 37.5t-38 89.5z" />
<glyph unicode="&#x141;" horiz-adv-x="1142" d="M-51 613q6 12 22 22l183 104v668q0 23 9 29t27 6h138q20 0 28.5 -6t8.5 -29v-545l217 125q16 10 32.5 8t26.5 -20l41 -62q10 -18 3 -31.5t-26 -25.5l-294 -170v-334q0 -156 157 -155h568q23 0 27.5 -9.5t4.5 -27.5v-117q0 -20 -5 -29.5t-27 -9.5h-586q-102 0 -169 29.5 t-108 80t-57 115t-16 136.5v198l-99 -55q-16 -10 -33.5 -8t-27.5 18l-39 60q-12 23 -6 35z" />
<glyph unicode="&#x142;" horiz-adv-x="585" d="M-49 582q6 12 22 22l181 103v757q0 23 8 28t28 5h132q20 0 28 -5t8 -28v-639l131 76q16 10 33 8t27 -20l35 -58q10 -18 3 -31.5t-26 -25.5l-203 -117v-413q0 -55 15.5 -72.5t52.5 -17.5q18 0 37.5 1t36.5 3q16 2 22 -2t8 -21l13 -90q2 -18 -1 -25.5t-22 -17.5 q-39 -16 -86 -20.5t-82 -4.5q-109 0 -153.5 50.5t-44.5 160.5v351l-103 -58q-16 -10 -33.5 -8t-27.5 19l-33 55q-12 23 -6 35z" />
<glyph unicode="&#x143;" horiz-adv-x="1433" d="M154 43v1280q0 57 23.5 85t86.5 28h62q49 0 71.5 -20.5t51.5 -67.5l444 -744l174 -299h6v1088q0 29 12.5 36t34.5 7h113q27 0 37 -7.5t10 -35.5v-1280q0 -57 -23.5 -85t-87.5 -28h-61q-49 0 -71.5 20.5t-51.5 67.5l-450 752l-168 290h-7v-1087q0 -29 -10 -36t-37 -7h-112 q-23 0 -35 7t-12 36zM615.5 1615.5q0.5 8.5 17.5 20.5l295 217q10 8 20 10.5t25 -14.5l94 -131q12 -12 9 -21t-13 -14l-348 -155q-20 -8 -30.5 -5t-20.5 13l-39 59q-10 12 -9.5 20.5z" />
<glyph unicode="&#x144;" horiz-adv-x="1163" d="M133 33v876q0 76 28.5 118t114.5 54q20 2 53 5.5t69 6.5t70 4t58 1q131 0 226.5 -29t157 -91.5t91 -160.5t29.5 -237v-547q0 -23 -8 -28t-29 -5h-127q-18 0 -27.5 5t-9.5 28v540q0 88 -14 153t-51 108t-98.5 64.5t-155.5 21.5q-23 0 -68 -2.5t-108 -12.5v-872 q0 -23 -8.5 -28t-28.5 -5h-127q-18 0 -27.5 5t-9.5 28zM421 1223.5q-3 7.5 7 27.5l135 324q4 10 13.5 17t29.5 3l158 -43q16 -4 19 -13t-5 -19l-225 -314q-12 -16 -21.5 -19t-25.5 1l-66 24q-16 4 -19 11.5z" />
<glyph unicode="&#x145;" horiz-adv-x="1433" d="M154 43v1280q0 57 23.5 85t86.5 28h62q49 0 71.5 -20.5t51.5 -67.5l444 -744l174 -299h6v1088q0 29 12.5 36t34.5 7h113q27 0 37 -7.5t10 -35.5v-1280q0 -57 -23.5 -85t-87.5 -28h-61q-49 0 -71.5 20.5t-51.5 67.5l-450 752l-168 290h-7v-1087q0 -29 -10 -36t-37 -7h-112 q-23 0 -35 7t-12 36zM518 -508l31 391q2 12 9 24.5t28 12.5h178q23 0 32 -12t5 -25l-131 -385q-8 -23 -14.5 -30t-28.5 -7h-68q-45 0 -41 31z" />
<glyph unicode="&#x146;" horiz-adv-x="1163" d="M133 33v876q0 76 28.5 118t114.5 54q20 2 53 5.5t69 6.5t70 4t58 1q131 0 226.5 -29t157 -91.5t91 -160.5t29.5 -237v-547q0 -23 -8 -28t-29 -5h-127q-18 0 -27.5 5t-9.5 28v540q0 88 -14 153t-51 108t-98.5 64.5t-155.5 21.5q-23 0 -68 -2.5t-108 -12.5v-872 q0 -23 -8.5 -28t-28.5 -5h-127q-18 0 -27.5 5t-9.5 28zM428 -569l31 391q2 12 9 24.5t28 12.5h178q23 0 32 -12.5t5 -24.5l-131 -385q-8 -23 -14.5 -30t-28.5 -7h-68q-45 0 -41 31z" />
<glyph unicode="&#x147;" horiz-adv-x="1433" d="M154 43v1280q0 57 23.5 85t86.5 28h62q49 0 71.5 -20.5t51.5 -67.5l444 -744l174 -299h6v1088q0 29 12.5 36t34.5 7h113q27 0 37 -7.5t10 -35.5v-1280q0 -57 -23.5 -85t-87.5 -28h-61q-49 0 -71.5 20.5t-51.5 67.5l-450 752l-168 290h-7v-1087q0 -29 -10 -36t-37 -7h-112 q-23 0 -35 7t-12 36zM401 1761q-12 14 2 31l33 47q18 18 43 6l277 -131l266 129q16 8 25.5 10t19.5 -6l39 -43q12 -10 13 -21t-15 -26l-258 -203q-29 -23 -52.5 -28.5t-37.5 -5.5q-16 0 -38 8t-46 26z" />
<glyph unicode="&#x148;" horiz-adv-x="1163" d="M133 33v876q0 76 28.5 118t114.5 54q20 2 53 5.5t69 6.5t70 4t58 1q131 0 226.5 -29t157 -91.5t91 -160.5t29.5 -237v-547q0 -23 -8 -28t-29 -5h-127q-18 0 -27.5 5t-9.5 28v540q0 88 -14 153t-51 108t-98.5 64.5t-155.5 21.5q-23 0 -68 -2.5t-108 -12.5v-872 q0 -23 -8.5 -28t-28.5 -5h-127q-18 0 -27.5 5t-9.5 28zM205 1483q-14 18 2 30l45 41q18 18 43 5l264 -189l266 186q27 18 45 5l39 -35q12 -10 13.5 -20.5t-15.5 -26.5l-258 -269q-25 -25 -44 -32t-46 -7q-23 0 -42 8.5t-42 30.5z" />
<glyph unicode="&#x149;" horiz-adv-x="1316" d="M-2 1026l31 391q2 12 9 24.5t28 12.5h178q23 0 32 -12t5 -25l-131 -385q-8 -23 -14.5 -30t-29.5 -7h-67q-45 0 -41 31zM287 33v876q0 76 28.5 118t114.5 54q20 2 53 5.5t69 6.5t69.5 4t58.5 1q131 0 226 -29t156.5 -91.5t91.5 -160.5t30 -237v-547q0 -23 -8.5 -28 t-28.5 -5h-127q-18 0 -27.5 5t-9.5 28v540q0 88 -14.5 153t-51 108t-98 64.5t-155.5 21.5q-23 0 -68 -2.5t-109 -12.5v-872q0 -23 -8 -28t-28 -5h-127q-18 0 -27.5 5t-9.5 28z" />
<glyph unicode="&#x14a;" horiz-adv-x="1433" d="M154 33v1308q0 57 24.5 85t79.5 28h68q68 0 98.5 -28.5t67.5 -92.5l399 -676l170 -301h12v1045q0 23 9.5 28t27.5 5h133q20 0 28.5 -5.5t8.5 -27.5v-1548q0 -55 -10 -104.5t-38 -86.5t-76 -58.5t-126 -21.5q-27 0 -60.5 5t-68.5 16q-16 4 -17 13t3 24l14 102 q4 23 13.5 25t23.5 0q20 -2 32.5 -3.5t26.5 -1.5q66 0 77 30t11 95v78l-542 909l-176 308h-7v-1149q0 -23 -8 -28t-28 -5h-134q-18 0 -27 5t-9 28z" />
<glyph unicode="&#x14b;" horiz-adv-x="1163" d="M133 33v876q0 152 143 172q20 2 53 5.5t69 6.5t70 4t58 1q131 0 226.5 -29t157 -91.5t91 -160.5t29.5 -237v-727q0 -55 -10 -104.5t-38 -86.5t-76 -58.5t-126 -21.5q-27 0 -60.5 5t-68.5 16q-16 4 -17 13t3 24l14 102q4 23 13.5 25t23.5 0q20 -2 30.5 -3.5t24.5 -1.5 q66 0 77 30t11 95q0 33 -1 58.5t-1 56.5v73v106.5v159.5v232q0 88 -14 153t-51 108t-98.5 64.5t-155.5 21.5q-23 0 -68 -2.5t-108 -12.5v-872q0 -23 -8.5 -28t-28.5 -5h-127q-18 0 -27.5 5t-9.5 28z" />
<glyph unicode="&#x14c;" horiz-adv-x="1458" d="M113 715q0 178 47 316t130 232.5t195.5 143.5t243.5 49q152 0 266.5 -50t192.5 -145.5t118 -230.5t40 -307q0 -360 -158 -553t-465 -193q-301 0 -455.5 185.5t-154.5 552.5zM326 723q0 -125 19.5 -227.5t65.5 -175t122.5 -112.5t191.5 -40q117 0 194.5 46t125 122 t66.5 174.5t19 204.5t-16 206.5t-59 176.5t-120 122t-200 46q-104 0 -181 -43t-127 -117t-75.5 -173t-25.5 -210zM451 1626v86q0 18 5 27.5t27 9.5h498q23 0 28 -9t5 -28v-86q0 -20 -5 -28.5t-28 -8.5h-498q-23 0 -27.5 8.5t-4.5 28.5z" />
<glyph unicode="&#x14d;" horiz-adv-x="1153" d="M92 537q0 135 37 239.5t102.5 176t154.5 108.5t192 37q238 0 360.5 -146.5t122.5 -408.5q0 -274 -124 -420t-366 -146q-236 0 -357.5 140.5t-121.5 419.5zM293 543q0 -90 13 -163t46 -125t87.5 -81t133.5 -29q82 0 136.5 33t87 87t47 125t14.5 147t-11 147.5t-42 125.5 t-84 87t-139 33q-74 0 -128.5 -31t-90 -83t-53 -122.5t-17.5 -150.5zM293 1245v86q0 18 5 27.5t28 9.5h497q23 0 28 -9t5 -28v-86q0 -20 -5 -28.5t-28 -8.5h-497q-23 0 -28 8.5t-5 28.5z" />
<glyph unicode="&#x14e;" horiz-adv-x="1458" d="M113 715q0 178 47 316t130 232.5t195.5 143.5t243.5 49q152 0 266.5 -50t192.5 -145.5t118 -230.5t40 -307q0 -360 -158 -553t-465 -193q-301 0 -455.5 185.5t-154.5 552.5zM326 723q0 -125 19.5 -227.5t65.5 -175t122.5 -112.5t191.5 -40q117 0 194.5 46t125 122 t66.5 174.5t19 204.5t-16 206.5t-59 176.5t-120 122t-200 46q-104 0 -181 -43t-127 -117t-75.5 -173t-25.5 -210zM390 1767.5q-3 10.5 13 24.5l46 39q18 12 24 9t23 -15q61 -63 126.5 -101t122.5 -38q23 0 48.5 5t56.5 21.5t66.5 44t80.5 74.5q18 16 25.5 14t17.5 -10 l45 -37q18 -16 15.5 -26.5t-6.5 -16.5q-92 -121 -184.5 -173t-172.5 -52q-53 0 -101 18.5t-91 49t-80 70.5t-68 83q-4 6 -7 16.5z" />
<glyph unicode="&#x14f;" horiz-adv-x="1153" d="M92 537q0 135 37 239.5t102.5 176t154.5 108.5t192 37q238 0 360.5 -146.5t122.5 -408.5q0 -274 -124 -420t-366 -146q-236 0 -357.5 140.5t-121.5 419.5zM220 1427.5q-3 10.5 13 24.5l46 39q18 12 24 9t23 -15q61 -63 126.5 -101t122.5 -38q23 0 48.5 5t56.5 21.5 t66.5 44t80.5 74.5q18 16 25.5 14t17.5 -10l45 -37q18 -16 15.5 -26.5t-6.5 -16.5q-92 -121 -184.5 -173t-172.5 -52q-53 0 -101 18.5t-91 49t-80 70.5t-68 83q-4 6 -7 16.5zM293 543q0 -90 13 -163t46 -125t87.5 -81t133.5 -29q82 0 136.5 33t87 87t47 125t14.5 147 t-11 147.5t-42 125.5t-84 87t-139 33q-74 0 -128.5 -31t-90 -83t-53 -122.5t-17.5 -150.5z" />
<glyph unicode="&#x150;" horiz-adv-x="1458" d="M113 715q0 178 47 316t130 232.5t195.5 143.5t243.5 49q152 0 266.5 -50t192.5 -145.5t118 -230.5t40 -307q0 -360 -158 -553t-465 -193q-301 0 -455.5 185.5t-154.5 552.5zM326 723q0 -125 19.5 -227.5t65.5 -175t122.5 -112.5t191.5 -40q117 0 194.5 46t125 122 t66.5 174.5t19 204.5t-16 206.5t-59 176.5t-120 122t-200 46q-104 0 -181 -43t-127 -117t-75.5 -173t-25.5 -210zM433 1634q1 8 18 21l288 215q10 8 20.5 10t24.5 -14l99 -119q12 -12 9 -21.5t-13 -13.5l-338 -156q-20 -8 -30.5 -5t-21.5 14l-47 49q-10 12 -9 20zM833 1634 q1 8 17 21l289 215q10 8 20 10t25 -14l98 -119q12 -12 9 -21.5t-13 -13.5l-338 -156q-20 -8 -30.5 -5t-20.5 14l-47 49q-10 12 -9 20z" />
<glyph unicode="&#x151;" horiz-adv-x="1153" d="M92 537q0 135 37 239.5t102.5 176t154.5 108.5t192 37q238 0 360.5 -146.5t122.5 -408.5q0 -274 -124 -420t-366 -146q-236 0 -357.5 140.5t-121.5 419.5zM293 543q0 -90 13 -163t46 -125t87.5 -81t133.5 -29q82 0 136.5 33t87 87t47 125t14.5 147t-11 147.5t-42 125.5 t-84 87t-139 33q-74 0 -128.5 -31t-90 -83t-53 -122.5t-17.5 -150.5zM341 1223.5q-3 7.5 7 27.5l135 324q4 10 13.5 17t29.5 3l158 -43q16 -4 19.5 -13t-5.5 -19l-225 -314q-12 -16 -21.5 -19t-25.5 1l-66 24q-16 4 -19 11.5zM634 1223.5q-3 7.5 7 27.5l135 324 q4 10 13.5 17t29.5 3l158 -43q16 -4 19 -13t-5 -19l-225 -314q-12 -16 -21.5 -19t-25.5 1l-66 24q-16 4 -19 11.5z" />
<glyph unicode="&#x152;" horiz-adv-x="1869" d="M162 717q0 168 43 304t122 232.5t190.5 149.5t250.5 53q152 0 268 -61q76 41 185 41h553q23 0 27.5 -9.5t4.5 -27.5v-119q0 -20 -5 -27.5t-27 -7.5h-537q-84 0 -121 -38t-37 -115v-240h621q23 0 28 -8t5 -29v-108q0 -18 -5.5 -27.5t-27.5 -9.5h-621v-326q0 -66 36 -108.5 t122 -42.5h537q23 0 27.5 -8.5t4.5 -28.5v-119q0 -18 -5 -27.5t-27 -9.5h-553q-55 0 -100.5 10t-82.5 29q-59 -29 -126.5 -45.5t-143.5 -16.5q-174 0 -291 62.5t-186.5 165t-99 236.5t-29.5 276zM375 717q0 -119 19.5 -220.5t65.5 -175t121.5 -115.5t186.5 -42q76 0 131 20 q-16 37 -22.5 81t-6.5 87v725q0 90 27 162q-29 10 -61.5 15.5t-67.5 5.5q-98 0 -172 -40t-123 -113t-73.5 -172t-24.5 -218z" />
<glyph unicode="&#x153;" horiz-adv-x="1880" d="M92 537q0 135 37 239.5t102.5 176t154.5 108.5t192 37q135 0 233 -48.5t158 -140.5q66 92 160.5 140.5t211.5 48.5t202 -32t140.5 -90t82 -141t26.5 -184q0 -53 -14.5 -87t-37 -53t-54 -27.5t-64.5 -8.5h-557q2 -90 26.5 -151.5t67.5 -99.5t98.5 -55t118.5 -17 q68 0 134.5 18t107.5 41q31 14 43 -12l49 -97q14 -33 -12 -47q-78 -47 -166 -62.5t-170 -15.5q-135 0 -237.5 42t-166.5 135q-125 -176 -387 -177q-236 0 -357.5 140.5t-121.5 419.5zM293 543q0 -90 13 -163t46 -125t87.5 -81t133.5 -29q82 0 136.5 33t87 87t47 125 t14.5 147t-11 147.5t-42 125.5t-84 87t-139 33q-74 0 -128.5 -31t-90 -83t-53 -122.5t-17.5 -150.5zM1073 635h529q0 61 -11.5 114.5t-40 93.5t-79 63.5t-128.5 23.5q-63 0 -112 -25.5t-83 -67.5t-53.5 -94.5t-21.5 -107.5z" />
<glyph unicode="&#x154;" horiz-adv-x="1296" d="M154 43v1284q0 59 25.5 85t84.5 26h471q98 0 179 -30t139.5 -84t91.5 -130t33 -166q0 -123 -61.5 -213t-164.5 -131v-10q43 -12 71 -31.5t47.5 -45.5t31.5 -56.5t22 -67.5l119 -432q4 -10 1 -25.5t-30 -15.5h-153q-10 0 -22.5 4t-18.5 25l-105 387q-33 115 -103.5 153.5 t-170.5 38.5h-270v-565q0 -29 -10.5 -36t-36.5 -7h-123q-23 0 -35 7t-12 36zM373 791h323q74 0 124 18t83 50t47.5 74t14.5 87q0 33 -9.5 71.5t-37 72.5t-76.5 56.5t-129 22.5h-340v-452zM501 1615.5q1 8.5 17 20.5l295 217q10 8 20.5 10.5t24.5 -14.5l94 -131q12 -12 9 -21 t-13 -14l-348 -155q-20 -8 -30.5 -5t-20.5 13l-39 59q-10 12 -9 20.5z" />
<glyph unicode="&#x155;" horiz-adv-x="866" d="M154 33v882q0 84 28.5 122t114.5 50q37 4 75 7.5t74 3.5q119 0 223.5 -32t194.5 -110q18 -16 4 -34l-86 -113q-10 -16 -19 -13t-20 11q-117 111 -284 111q-27 0 -53.5 -3.5t-51.5 -7.5v-874q0 -23 -8 -28t-29 -5h-127q-18 0 -27 5t-9 28zM327 1223.5q-3 7.5 7 27.5 l135 324q4 10 13.5 17t29.5 3l158 -43q16 -4 19 -13t-5 -19l-225 -314q-12 -16 -21.5 -19t-25.5 1l-66 24q-16 4 -19 11.5z" />
<glyph unicode="&#x156;" horiz-adv-x="1296" d="M154 43v1284q0 59 25.5 85t84.5 26h471q98 0 179 -30t139.5 -84t91.5 -130t33 -166q0 -123 -61.5 -213t-164.5 -131v-10q43 -12 71 -31.5t47.5 -45.5t31.5 -56.5t22 -67.5l119 -432q4 -10 1 -25.5t-30 -15.5h-153q-10 0 -22.5 4t-18.5 25l-105 387q-33 115 -103.5 153.5 t-170.5 38.5h-270v-565q0 -29 -10.5 -36t-36.5 -7h-123q-23 0 -35 7t-12 36zM373 791h323q74 0 124 18t83 50t47.5 74t14.5 87q0 33 -9.5 71.5t-37 72.5t-76.5 56.5t-129 22.5h-340v-452zM530 -504l31 391q2 12 9.5 24.5t27.5 12.5h178q23 0 32 -12t5 -25l-131 -385 q-8 -23 -14 -30t-29 -7h-68q-45 0 -41 31z" />
<glyph unicode="&#x157;" horiz-adv-x="866" d="M98 -569l31 391q2 12 9 24.5t28 12.5h178q23 0 32 -12.5t5 -24.5l-131 -385q-8 -23 -14.5 -30t-28.5 -7h-68q-45 0 -41 31zM154 33v882q0 84 28.5 122t114.5 50q37 4 75 7.5t74 3.5q119 0 223.5 -32t194.5 -110q18 -16 4 -34l-86 -113q-10 -16 -19 -13t-20 11 q-117 111 -284 111q-27 0 -53.5 -3.5t-51.5 -7.5v-874q0 -23 -8 -28t-29 -5h-127q-18 0 -27 5t-9 28z" />
<glyph unicode="&#x158;" horiz-adv-x="1296" d="M154 43v1284q0 59 25.5 85t84.5 26h471q98 0 179 -30t139.5 -84t91.5 -130t33 -166q0 -123 -61.5 -213t-164.5 -131v-10q43 -12 71 -31.5t47.5 -45.5t31.5 -56.5t22 -67.5l119 -432q4 -10 1 -25.5t-30 -15.5h-153q-10 0 -22.5 4t-18.5 25l-105 387q-33 115 -103.5 153.5 t-170.5 38.5h-270v-565q0 -29 -10.5 -36t-36.5 -7h-123q-23 0 -35 7t-12 36zM254 1761q-12 14 2 31l33 47q18 18 43 6l276 -131l266 129q16 8 25.5 10t20.5 -6l38 -43q12 -10 13.5 -21t-15.5 -26l-258 -203q-29 -23 -52 -28.5t-38 -5.5q-16 0 -37.5 8t-46.5 26zM373 791h323 q74 0 124 18t83 50t47.5 74t14.5 87q0 33 -9.5 71.5t-37 72.5t-76.5 56.5t-129 22.5h-340v-452z" />
<glyph unicode="&#x159;" horiz-adv-x="866" d="M80 1483q-14 18 2 30l45 41q18 18 43 5l264 -189l266 186q27 18 45 5l39 -35q12 -10 13.5 -20.5t-15.5 -26.5l-258 -269q-25 -25 -44 -32t-46 -7q-23 0 -42 8.5t-42 30.5zM154 33v882q0 84 28.5 122t114.5 50q37 4 75 7.5t74 3.5q119 0 223.5 -32t194.5 -110 q18 -16 4 -34l-86 -113q-10 -16 -19 -13t-20 11q-117 111 -284 111q-27 0 -53.5 -3.5t-51.5 -7.5v-874q0 -23 -8 -28t-29 -5h-127q-18 0 -27 5t-9 28z" />
<glyph unicode="&#x15a;" horiz-adv-x="1181" d="M82 125l55 125q12 25 37 14q221 -96 410 -96q172 0 246.5 58.5t74.5 154.5q0 49 -20.5 87t-60.5 69.5t-98 59.5t-136 58q-115 45 -201 88t-144.5 92.5t-88 109t-29.5 136.5q0 170 112.5 273.5t335.5 103.5q51 0 110.5 -5t118 -15.5t114 -25.5t102.5 -36q25 -12 14 -35 l-47 -131q-6 -16 -12 -18t-17 2q-104 37 -205.5 54.5t-185.5 17.5q-117 0 -172 -49.5t-55 -118.5q0 -45 21.5 -79t66.5 -64.5t112.5 -61.5t159.5 -70q78 -33 154 -68.5t135.5 -84.5t96 -117t36.5 -164q0 -106 -40 -184t-108.5 -128t-159.5 -75t-193 -25q-127 0 -266.5 21.5 t-262.5 83.5q-25 10 -10 43zM415 1615.5q1 8.5 17 20.5l295 217q10 8 20.5 10.5t24.5 -14.5l94 -131q12 -12 9 -21t-13 -14l-348 -155q-20 -8 -30.5 -5t-20.5 13l-39 59q-10 12 -9 20.5z" />
<glyph unicode="&#x15b;" horiz-adv-x="968" d="M74 78.5q-6 11.5 4 30.5l43 96q8 16 17 21t32 -5q82 -37 169 -55.5t159 -18.5q96 0 146 38t50 104q0 70 -63.5 109.5t-177.5 80.5q-84 31 -146.5 60.5t-103.5 66.5t-61.5 83t-20.5 108q0 135 96 218t277 83q84 0 162.5 -13.5t160.5 -46.5q14 -6 18.5 -18t0.5 -25 l-43 -108q-6 -14 -15.5 -14.5t-19.5 4.5q-84 31 -142.5 41t-128.5 10q-88 0 -129 -36t-41 -83q0 -31 12.5 -54.5t40 -44t71.5 -40t108 -43.5q61 -23 121.5 -49.5t108.5 -64.5t78 -90t30 -126q0 -82 -31 -141.5t-84 -99.5t-123.5 -59.5t-150.5 -19.5q-98 0 -209 18.5 t-197 65.5q-12 6 -18 17.5zM335 1223.5q-3 7.5 7 27.5l135 324q4 10 13.5 17t29.5 3l158 -43q16 -4 19 -13t-5 -19l-225 -314q-12 -16 -21.5 -19t-25.5 1l-66 24q-16 4 -19 11.5z" />
<glyph unicode="&#x15c;" horiz-adv-x="1181" d="M82 125l55 125q12 25 37 14q221 -96 410 -96q172 0 246.5 58.5t74.5 154.5q0 49 -20.5 87t-60.5 69.5t-98 59.5t-136 58q-115 45 -201 88t-144.5 92.5t-88 109t-29.5 136.5q0 170 112.5 273.5t335.5 103.5q51 0 110.5 -5t118 -15.5t114 -25.5t102.5 -36q25 -12 14 -35 l-47 -131q-6 -16 -12 -18t-17 2q-104 37 -205.5 54.5t-185.5 17.5q-117 0 -172 -49.5t-55 -118.5q0 -45 21.5 -79t66.5 -64.5t112.5 -61.5t159.5 -70q78 -33 154 -68.5t135.5 -84.5t96 -117t36.5 -164q0 -106 -40 -184t-108.5 -128t-159.5 -75t-193 -25q-127 0 -266.5 21.5 t-262.5 83.5q-25 10 -10 43zM272.5 1611.5q-2.5 8.5 8.5 16.5l260 209q45 37 84 37q14 0 36.5 -5t53.5 -32l250 -209q25 -18 4 -43l-33 -39q-8 -10 -18.5 -7t-26.5 11l-268 127l-267 -131q-12 -6 -20 -5t-19 11l-36 43q-6 8 -8.5 16.5z" />
<glyph unicode="&#x15d;" horiz-adv-x="968" d="M74 78.5q-6 11.5 4 30.5l43 96q8 16 17 21t32 -5q82 -37 169 -55.5t159 -18.5q96 0 146 38t50 104q0 70 -63.5 109.5t-177.5 80.5q-84 31 -146.5 60.5t-103.5 66.5t-61.5 83t-20.5 108q0 135 96 218t277 83q84 0 162.5 -13.5t160.5 -46.5q14 -6 18.5 -18t0.5 -25 l-43 -108q-6 -14 -15.5 -14.5t-19.5 4.5q-84 31 -142.5 41t-128.5 10q-88 0 -129 -36t-41 -83q0 -31 12.5 -54.5t40 -44t71.5 -40t108 -43.5q61 -23 121.5 -49.5t108.5 -64.5t78 -90t30 -126q0 -82 -31 -141.5t-84 -99.5t-123.5 -59.5t-150.5 -19.5q-98 0 -209 18.5 t-197 65.5q-12 6 -18 17.5zM125 1278l270 272q23 23 42.5 31t41.5 8q27 0 46.5 -7t43.5 -32l258 -268q27 -27 2 -47l-38 -35q-18 -14 -46 4l-266 187l-266 -193q-25 -14 -43 4l-43 45q-14 14 -2 31z" />
<glyph unicode="&#x15e;" horiz-adv-x="1181" d="M82 125l55 125q12 25 37 14q221 -96 410 -96q172 0 246.5 58.5t74.5 154.5q0 49 -20.5 87t-60.5 69.5t-98 59.5t-136 58q-115 45 -201 88t-144.5 92.5t-88 109t-29.5 136.5q0 170 112.5 273.5t335.5 103.5q51 0 110.5 -5t118 -15.5t114 -25.5t102.5 -36q25 -12 14 -35 l-47 -131q-6 -16 -12 -18t-17 2q-104 37 -205.5 54.5t-185.5 17.5q-117 0 -172 -49.5t-55 -118.5q0 -45 21.5 -79t66.5 -64.5t112.5 -61.5t159.5 -70q78 -33 154 -68.5t135.5 -84.5t96 -117t36.5 -164q0 -106 -40 -184t-108.5 -128t-159.5 -75t-193 -25h-27l-31 -92 q57 -4 96 -18t61.5 -35.5t33 -49.5t10.5 -54q0 -29 -13.5 -58.5t-40 -54.5t-67.5 -40t-96 -15q-51 0 -100.5 9t-79.5 25q-25 8 -15 35l17 43q8 16 14 17.5t20 -2.5q59 -20 119 -21q100 0 101 66q0 35 -35 49t-76 14h-41t-20 8q-10 10 -8.5 22.5t6.5 29.5l45 129 q-102 8 -206 29.5t-196 68.5q-25 10 -10 43z" />
<glyph unicode="&#x15f;" horiz-adv-x="968" d="M74 78.5q-6 11.5 4 30.5l43 96q8 16 17 21t32 -5q82 -37 169 -55.5t159 -18.5q96 0 146 38t50 104q0 70 -63.5 109.5t-177.5 80.5q-84 31 -146.5 60.5t-103.5 66.5t-61.5 83t-20.5 108q0 135 96 218t277 83q84 0 162.5 -13.5t160.5 -46.5q14 -6 18.5 -18t0.5 -25 l-43 -108q-6 -14 -15.5 -14.5t-19.5 4.5q-84 31 -142.5 41t-128.5 10q-88 0 -129 -36t-41 -83q0 -31 12.5 -54.5t40 -44t71.5 -40t108 -43.5q61 -23 121.5 -49.5t108.5 -64.5t78 -90t30 -126q0 -82 -31 -141.5t-84 -99.5t-123.5 -59.5t-150.5 -19.5h-2l-31 -92q57 -4 96 -18 t61.5 -35.5t33 -49.5t10.5 -54q0 -29 -13.5 -58.5t-40 -54.5t-67.5 -40t-96 -15q-51 0 -100.5 9t-80.5 25q-25 8 -14 35l16 43q8 16 14.5 17.5t20.5 -2.5q59 -20 119 -21q100 0 100 66q0 35 -34.5 49t-75.5 14h-41.5t-20.5 8q-10 10 -8 22.5t6 29.5l43 127 q-78 8 -157.5 26.5t-143.5 52.5q-12 6 -18 17.5z" />
<glyph unicode="&#x160;" horiz-adv-x="1181" d="M82 125l55 125q12 25 37 14q221 -96 410 -96q172 0 246.5 58.5t74.5 154.5q0 49 -20.5 87t-60.5 69.5t-98 59.5t-136 58q-115 45 -201 88t-144.5 92.5t-88 109t-29.5 136.5q0 170 112.5 273.5t335.5 103.5q51 0 110.5 -5t118 -15.5t114 -25.5t102.5 -36q25 -12 14 -35 l-47 -131q-6 -16 -12 -18t-17 2q-104 37 -205.5 54.5t-185.5 17.5q-117 0 -172 -49.5t-55 -118.5q0 -45 21.5 -79t66.5 -64.5t112.5 -61.5t159.5 -70q78 -33 154 -68.5t135.5 -84.5t96 -117t36.5 -164q0 -106 -40 -184t-108.5 -128t-159.5 -75t-193 -25q-127 0 -266.5 21.5 t-262.5 83.5q-25 10 -10 43zM272 1761q-12 14 2 31l33 47q18 18 43 6l277 -131l266 129q16 8 25.5 10t19.5 -6l39 -43q12 -10 13 -21t-15 -26l-258 -203q-29 -23 -52.5 -28.5t-37.5 -5.5q-16 0 -38 8t-46 26z" />
<glyph unicode="&#x161;" horiz-adv-x="968" d="M74 78.5q-6 11.5 4 30.5l43 96q8 16 17 21t32 -5q82 -37 169 -55.5t159 -18.5q96 0 146 38t50 104q0 70 -63.5 109.5t-177.5 80.5q-84 31 -146.5 60.5t-103.5 66.5t-61.5 83t-20.5 108q0 135 96 218t277 83q84 0 162.5 -13.5t160.5 -46.5q14 -6 18.5 -18t0.5 -25 l-43 -108q-6 -14 -15.5 -14.5t-19.5 4.5q-84 31 -142.5 41t-128.5 10q-88 0 -129 -36t-41 -83q0 -31 12.5 -54.5t40 -44t71.5 -40t108 -43.5q61 -23 121.5 -49.5t108.5 -64.5t78 -90t30 -126q0 -82 -31 -141.5t-84 -99.5t-123.5 -59.5t-150.5 -19.5q-98 0 -209 18.5 t-197 65.5q-12 6 -18 17.5zM125 1495q-14 18 2 31l45 41q18 18 43 4l264 -189l266 187q27 18 46 4l38 -35q12 -10 13.5 -20.5t-15.5 -26.5l-258 -268q-25 -25 -44 -32t-46 -7q-23 0 -42 8t-42 31z" />
<glyph unicode="&#x162;" horiz-adv-x="1136" d="M31 1282v115q0 18 5 27.5t27 9.5h1010q23 0 28 -9.5t5 -27.5v-115q0 -18 -5 -26.5t-28 -8.5h-401v-1204q0 -29 -10.5 -36t-36.5 -7h-123q-23 0 -35 7t-12 36v1204h-392q-23 0 -27.5 8.5t-4.5 26.5zM406 -569l30 391q2 12 9.5 24.5t27.5 12.5h178q23 0 32 -12.5t5 -24.5 l-131 -385q-8 -23 -14 -30t-29 -7h-68q-45 0 -40 31z" />
<glyph unicode="&#x163;" horiz-adv-x="770" d="M31 948v68q0 16 6 25.5t26 13.5l158 32l35 197q4 23 13.5 29t29.5 14l76 29q16 4 25.5 -1t9.5 -28v-252h215q23 0 27.5 -9t4.5 -24v-94q0 -16 -5 -24.5t-27 -8.5h-215v-639q0 -68 30.5 -95t96.5 -27q27 0 76 5t79 9q20 4 26.5 -1t8.5 -17l21 -107q2 -12 1 -21.5 t-20 -15.5q-63 -20 -130 -24.5t-97 -4.5q-162 0 -227.5 70t-65.5 217v651h-146q-23 0 -27.5 9.5t-4.5 23.5zM205 -569l31 391q2 12 9 24.5t27 12.5h179q23 0 32 -12.5t4 -24.5l-131 -385q-8 -23 -14 -30t-29 -7h-67q-45 0 -41 31z" />
<glyph unicode="&#x164;" horiz-adv-x="1136" d="M31 1282v115q0 18 5 27.5t27 9.5h1010q23 0 28 -9.5t5 -27.5v-115q0 -18 -5 -26.5t-28 -8.5h-401v-1204q0 -29 -10.5 -36t-36.5 -7h-123q-23 0 -35 7t-12 36v1204h-392q-23 0 -27.5 8.5t-4.5 26.5zM211 1761q-12 14 2 31l33 47q18 18 43 6l276 -131l266 129q16 8 25.5 10 t20.5 -6l38 -43q12 -10 13.5 -21t-15.5 -26l-258 -203q-29 -23 -52 -28.5t-38 -5.5q-16 0 -37.5 8t-46.5 26z" />
<glyph unicode="&#x165;" horiz-adv-x="868" d="M31 948v68q0 16 6 25.5t26 13.5l158 32l35 197q4 23 13.5 29t29.5 14l76 29q16 4 25.5 -1t9.5 -28v-252h215q23 0 27.5 -9t4.5 -24v-94q0 -16 -5 -24.5t-27 -8.5h-215v-639q0 -68 30.5 -95t96.5 -27q27 0 76 5t79 9q20 4 26.5 -1t8.5 -17l21 -107q2 -12 1 -21.5 t-20 -15.5q-63 -20 -130 -24.5t-97 -4.5q-162 0 -227.5 70t-65.5 217v651h-146q-23 0 -27.5 9.5t-4.5 23.5zM639 1192l31 391q2 12 9 24.5t28 12.5h178q23 0 32 -12.5t5 -24.5l-131 -385q-8 -23 -14.5 -30t-28.5 -7h-68q-45 0 -41 31z" />
<glyph unicode="&#x166;" horiz-adv-x="1136" d="M31 1282v115q0 18 5 27.5t27 9.5h1010q23 0 28 -9.5t5 -27.5v-115q0 -18 -5 -26.5t-28 -8.5h-403v-366h344q18 0 22 -7.5t4 -23.5v-78q0 -16 -4 -23.5t-22 -7.5h-344v-708q0 -23 -7.5 -28t-25.5 -5h-145q-18 0 -27.5 5t-9.5 28v708h-338q-18 0 -22.5 7.5t-4.5 23.5v78 q0 16 4 23.5t23 7.5h338v366h-392q-23 0 -27.5 8.5t-4.5 26.5z" />
<glyph unicode="&#x167;" horiz-adv-x="770" d="M31 948v68q0 16 6 25.5t26 13.5l158 32l35 197q4 23 13.5 29t29.5 14l76 29q16 4 25.5 -1t9.5 -28v-252h215q23 0 27.5 -9t4.5 -24v-94q0 -16 -5 -24.5t-27 -8.5h-215v-235h237q18 0 22.5 -7t4.5 -24v-76q0 -16 -4 -23t-23 -7h-237v-267q0 -68 30.5 -95t96.5 -27 q27 0 76 5t79 9q20 4 26.5 -1t8.5 -17l21 -107q2 -12 1 -21.5t-20 -15.5q-63 -20 -130 -24.5t-97 -4.5q-162 0 -227.5 70t-65.5 217v279h-137q-18 0 -22.5 7t-4.5 23v76q0 16 4 23.5t23 7.5h137v235h-146q-23 0 -27.5 9.5t-4.5 23.5z" />
<glyph unicode="&#x168;" horiz-adv-x="1400" d="M152 1391q0 29 12 36t35 7h123q27 0 37 -7.5t10 -35.5v-760q0 -119 15 -206t59 -145.5t127 -87t218 -28.5q35 0 100.5 3t149.5 19v1205q0 29 12.5 36t34.5 7h123q27 0 33 -7.5t6 -35.5v-1192q0 -82 -35.5 -133.5t-132.5 -67.5q-78 -12 -157.5 -17.5t-145.5 -5.5 q-170 0 -288.5 33t-192.5 109t-107.5 200.5t-33.5 309.5zM358.5 1597.5q-6.5 6.5 1.5 22.5q35 61 88.5 106.5t133.5 45.5q37 0 69.5 -12.5t64.5 -28t61.5 -27.5t58.5 -12q31 0 54 16t34 41q8 16 15 18t24 -2l79 -22q35 -6 25 -31q-35 -76 -84 -120t-133 -44q-37 0 -71 11.5 t-67.5 24.5t-66.5 25.5t-67 12.5q-27 0 -48.5 -16.5t-33.5 -38.5q-6 -10 -15.5 -15.5t-27.5 2.5l-70 31q-18 6 -24.5 12.5z" />
<glyph unicode="&#x169;" horiz-adv-x="1142" d="M133 498v546q0 23 8.5 28t28.5 5h127q18 0 27.5 -5t9.5 -28v-540q0 -88 11 -152.5t44 -107.5t91.5 -64.5t152.5 -21.5q23 0 67.5 2t108.5 12v872q0 23 8 28t29 5h127q18 0 27.5 -5t9.5 -28v-876q0 -147 -144 -172q-57 -10 -128.5 -13t-121.5 -3q-133 0 -224 28.5 t-149.5 91t-84 160.5t-25.5 238zM221.5 1317q-6.5 6 1.5 22q35 61 88.5 106.5t132.5 45.5q37 0 70 -12.5t64.5 -27.5t61.5 -27.5t58 -12.5q31 0 54.5 16.5t33.5 40.5q8 16 15.5 18.5t23.5 -1.5l80 -23q35 -6 25 -30q-35 -76 -84 -120t-133 -44q-37 0 -71 11t-67.5 24.5 t-66.5 25.5t-68 12q-27 0 -48 -16t-34 -39q-6 -10 -15 -15t-28 3l-69 31q-18 6 -24.5 12z" />
<glyph unicode="&#x16a;" horiz-adv-x="1400" d="M152 1391q0 29 12 36t35 7h123q27 0 37 -7.5t10 -35.5v-760q0 -119 15 -206t59 -145.5t127 -87t218 -28.5q35 0 100.5 3t149.5 19v1205q0 29 12.5 36t34.5 7h123q27 0 33 -7.5t6 -35.5v-1192q0 -82 -35.5 -133.5t-132.5 -67.5q-78 -12 -157.5 -17.5t-145.5 -5.5 q-170 0 -288.5 33t-192.5 109t-107.5 200.5t-33.5 309.5zM422 1616v86q0 18 5 27.5t28 9.5h497q23 0 28 -9.5t5 -27.5v-86q0 -20 -5 -28.5t-28 -8.5h-497q-23 0 -28 8t-5 29z" />
<glyph unicode="&#x16b;" horiz-adv-x="1142" d="M133 498v546q0 23 8.5 28t28.5 5h127q18 0 27.5 -5t9.5 -28v-540q0 -88 11 -152.5t44 -107.5t91.5 -64.5t152.5 -21.5q23 0 67.5 2t108.5 12v872q0 23 8 28t29 5h127q18 0 27.5 -5t9.5 -28v-876q0 -147 -144 -172q-57 -10 -128.5 -13t-121.5 -3q-133 0 -224 28.5 t-149.5 91t-84 160.5t-25.5 238zM299 1298v86q0 18 5 27.5t28 9.5h497q23 0 28 -9t5 -28v-86q0 -20 -5 -28t-28 -8h-497q-23 0 -28 8t-5 28z" />
<glyph unicode="&#x16c;" horiz-adv-x="1400" d="M152 1391q0 29 12 36t35 7h123q27 0 37 -7.5t10 -35.5v-760q0 -119 15 -206t59 -145.5t127 -87t218 -28.5q35 0 100.5 3t149.5 19v1205q0 29 12.5 36t34.5 7h123q27 0 33 -7.5t6 -35.5v-1192q0 -82 -35.5 -133.5t-132.5 -67.5q-78 -12 -157.5 -17.5t-145.5 -5.5 q-170 0 -288.5 33t-192.5 109t-107.5 200.5t-33.5 309.5zM363.5 1747q-3.5 10 13.5 25l45 38q18 12 24.5 9.5t22.5 -15.5q61 -63 127 -101t123 -38q23 0 48.5 5t56 21.5t66.5 44t81 74.5q18 16 25.5 14.5t17.5 -9.5l45 -37q18 -16 15 -26.5t-7 -16.5q-92 -121 -184 -173.5 t-172 -52.5q-53 0 -101.5 18.5t-91.5 49.5t-80 71t-67 83q-4 6 -7.5 16z" />
<glyph unicode="&#x16d;" horiz-adv-x="1142" d="M133 498v546q0 23 8.5 28t28.5 5h127q18 0 27.5 -5t9.5 -28v-540q0 -88 11 -152.5t44 -107.5t91.5 -64.5t152.5 -21.5q23 0 67.5 2t108.5 12v872q0 23 8 28t29 5h127q18 0 27.5 -5t9.5 -28v-876q0 -147 -144 -172q-57 -10 -128.5 -13t-121.5 -3q-133 0 -224 28.5 t-149.5 91t-84 160.5t-25.5 238zM220 1427.5q-3 10.5 13 24.5l46 39q18 12 24 9t23 -15q61 -63 126.5 -101t122.5 -38q23 0 48.5 5t56.5 21.5t66.5 44t80.5 74.5q18 16 25.5 14t17.5 -10l45 -37q18 -16 15.5 -26.5t-6.5 -16.5q-92 -121 -184.5 -173t-172.5 -52 q-53 0 -101 18.5t-91 49t-80 70.5t-68 83q-4 6 -7 16.5z" />
<glyph unicode="&#x16e;" horiz-adv-x="1400" d="M152 1391q0 29 12 36t35 7h123q27 0 37 -7.5t10 -35.5v-760q0 -119 15 -206t59 -145.5t127 -87t218 -28.5q35 0 100.5 3t149.5 19v1205q0 29 12.5 36t34.5 7h123q27 0 33 -7.5t6 -35.5v-1192q0 -82 -35.5 -133.5t-132.5 -67.5q-78 -12 -157.5 -17.5t-145.5 -5.5 q-170 0 -288.5 33t-192.5 109t-107.5 200.5t-33.5 309.5zM506 1688q0 86 60.5 142t148.5 56t148.5 -56t60.5 -142t-60.5 -142.5t-148.5 -56.5t-148.5 55t-60.5 144zM608 1688q0 -47 30 -77t77 -30t76.5 30t29.5 77t-29.5 76.5t-76.5 29.5t-77 -29.5t-30 -76.5z" />
<glyph unicode="&#x16f;" horiz-adv-x="1142" d="M133 498v546q0 23 8.5 28t28.5 5h127q18 0 27.5 -5t9.5 -28v-540q0 -88 11 -152.5t44 -107.5t91.5 -64.5t152.5 -21.5q23 0 67.5 2t108.5 12v872q0 23 8 28t29 5h127q18 0 27.5 -5t9.5 -28v-876q0 -147 -144 -172q-57 -10 -128.5 -13t-121.5 -3q-133 0 -224 28.5 t-149.5 91t-84 160.5t-25.5 238zM373 1384q0 86 60.5 142.5t148.5 56.5t148.5 -56.5t60.5 -142.5t-60.5 -142t-148.5 -56t-148.5 55t-60.5 143zM475 1384q0 -47 30 -76.5t77 -29.5t76.5 29.5t29.5 76.5t-29.5 77t-76.5 30t-77 -29.5t-30 -77.5z" />
<glyph unicode="&#x170;" horiz-adv-x="1400" d="M152 1391q0 29 12 36t35 7h123q27 0 37 -7.5t10 -35.5v-760q0 -119 15 -206t59 -145.5t127 -87t218 -28.5q35 0 100.5 3t149.5 19v1205q0 29 12.5 36t34.5 7h123q27 0 33 -7.5t6 -35.5v-1192q0 -82 -35.5 -133.5t-132.5 -67.5q-78 -12 -157.5 -17.5t-145.5 -5.5 q-170 0 -288.5 33t-192.5 109t-107.5 200.5t-33.5 309.5zM394 1634q1 8 18 21l288 215q10 8 20.5 10t24.5 -14l99 -119q12 -12 9 -21.5t-13 -13.5l-338 -156q-20 -8 -30.5 -5t-20.5 14l-48 49q-10 12 -9 20zM794 1634q1 8 17 21l289 215q10 8 20 10t25 -14l98 -119 q12 -12 9 -21.5t-13 -13.5l-338 -156q-20 -8 -30.5 -5t-20.5 14l-47 49q-10 12 -9 20z" />
<glyph unicode="&#x171;" horiz-adv-x="1142" d="M133 498v546q0 23 8.5 28t28.5 5h127q18 0 27.5 -5t9.5 -28v-540q0 -88 11 -152.5t44 -107.5t91.5 -64.5t152.5 -21.5q23 0 67.5 2t108.5 12v872q0 23 8 28t29 5h127q18 0 27.5 -5t9.5 -28v-876q0 -147 -144 -172q-57 -10 -128.5 -13t-121.5 -3q-133 0 -224 28.5 t-149.5 91t-84 160.5t-25.5 238zM320.5 1223.5q-3.5 7.5 7.5 27.5l135 324q4 10 13 17t30 3l158 -43q16 -4 19 -13t-5 -19l-225 -314q-12 -16 -21.5 -19t-25.5 1l-66 24q-16 4 -19.5 11.5zM613.5 1223.5q-3.5 7.5 7.5 27.5l135 324q4 10 13 17t30 3l157 -43q16 -4 19.5 -13 t-4.5 -19l-226 -314q-12 -16 -21 -19t-26 1l-65 24q-16 4 -19.5 11.5z" />
<glyph unicode="&#x172;" horiz-adv-x="1400" d="M152 1391q0 29 12 36t35 7h123q27 0 37 -7.5t10 -35.5v-760q0 -119 15 -206t59 -145.5t127 -87t218 -28.5q35 0 100.5 3t149.5 19v1205q0 29 12.5 36t34.5 7h123q27 0 33 -7.5t6 -35.5v-1192q0 -82 -35.5 -133.5t-132.5 -67.5q-61 -10 -125.5 -15.5t-122.5 -7.5 q-55 -66 -80.5 -123t-25.5 -98t26.5 -54t75.5 -13q14 0 43 5t58 11q16 4 22 3t11 -17l14 -43q6 -16 1 -23.5t-15 -11.5q-29 -14 -84.5 -27.5t-110.5 -13.5q-106 0 -151.5 44t-47.5 107q-2 66 34 136.5t95 119.5q-147 6 -250.5 43t-168 114t-94 198t-29.5 295z" />
<glyph unicode="&#x173;" horiz-adv-x="1142" d="M133 498v546q0 23 8.5 28t28.5 5h127q18 0 27.5 -5t9.5 -28v-540q0 -88 11 -152.5t44 -107.5t91.5 -64.5t152.5 -21.5q23 0 67.5 2t108.5 12v872q0 23 8 28t29 5h127q18 0 27.5 -5t9.5 -28v-876q0 -115 -84 -156q-63 -72 -91 -133t-28 -102t26.5 -54.5t75.5 -13.5 q14 0 43 5t58 12q16 4 22 3t10 -18l15 -43q6 -16 1 -23t-16 -12q-29 -14 -84 -27.5t-110 -13.5q-106 0 -151.5 44.5t-47.5 107.5q-2 61 29 125.5t82 116.5q-39 -4 -77 -5t-67 -1q-133 0 -224 28.5t-149.5 91t-84 160.5t-25.5 238z" />
<glyph unicode="&#x174;" horiz-adv-x="1712" d="M33 1407q-8 29 18 29h166q33 0 39 -27l150 -829l57 -330h12l66 325l157 758q8 41 33 72t88 31h88q53 0 78 -29t35 -74l151 -747l66 -336h12l62 338l151 821q6 27 39 27h160q25 0 18 -29l-276 -1323q-10 -53 -40 -68.5t-77 -15.5h-100q-45 0 -66.5 26.5t-32.5 73.5 l-161 770l-64 326h-8l-66 -328l-163 -768q-10 -47 -32 -73.5t-67 -26.5h-100q-47 0 -77 15.5t-40 68.5zM506 1591q-2 8 8 17l260 209q45 37 84 36q14 0 37 -5t53 -31l250 -209q25 -18 4 -43l-33 -39q-8 -10 -18 -7t-27 11l-268 127l-266 -131q-12 -6 -20.5 -5t-18.5 11 l-37 43q-6 8 -8 16z" />
<glyph unicode="&#x175;" horiz-adv-x="1538" d="M43 1057q-6 23 18 22h156q16 0 21.5 -5t9.5 -15l102 -553l56 -297h12l78 268l131 475q10 33 31.5 59.5t80.5 26.5h70q49 0 67.5 -25.5t30.5 -66.5l123 -436l90 -320h13l55 316l102 553q4 10 9.5 15t21.5 5h156q25 0 18 -22l-213 -969q-14 -63 -45 -80.5t-70 -17.5h-82 q-53 0 -73.5 18.5t-36.5 71.5l-111 377l-92 348h-8l-94 -361l-111 -364q-12 -43 -34.5 -66.5t-75.5 -23.5h-89q-39 0 -65.5 17.5t-40.5 80.5zM418 1257l270 273q23 23 42.5 31t41.5 8q27 0 46.5 -7.5t43.5 -31.5l258 -268q27 -27 2 -48l-39 -34q-18 -14 -45 4l-266 186 l-266 -192q-25 -14 -43 4l-43 45q-14 14 -2 30z" />
<glyph unicode="&#x176;" horiz-adv-x="1183" d="M24 1427.5q3 8.5 17 8.5h174q16 0 25.5 -5.5t19.5 -23.5l174 -332l162 -321h8l170 336l166 317q16 29 45 29h162q12 0 15 -8.5t-1 -16.5l-461 -844v-534q0 -23 -7 -28t-27 -5h-136q-18 0 -27 5t-9 28v534l-469 844q-4 8 -1 16.5zM246 1591q-2 8 8 17l260 209q45 37 84 36 q14 0 36.5 -5t53.5 -31l250 -209q25 -18 4 -43l-33 -39q-8 -10 -18 -7t-27 11l-268 127l-266 -131q-12 -6 -20.5 -5t-18.5 11l-37 43q-6 8 -8 16z" />
<glyph unicode="&#x177;" horiz-adv-x="1021" d="M23 1053q-6 23 18 22h158q16 0 21 -5t9 -15l156 -506l111 -379h12l123 381l168 504q4 10 9 15t21 5h152q25 0 18 -22l-405 -1225q-47 -141 -126 -198.5t-200 -57.5q-27 0 -71.5 4t-96.5 18q-33 8 -24 35l24 103q4 18 12.5 21t24.5 -1q35 -8 53.5 -11t47.5 -3 q74 0 116.5 28.5t67.5 104.5l47 141h-43q-33 0 -57.5 11.5t-42.5 70.5zM164 1268l270 272q23 23 42.5 31t41.5 8q27 0 46.5 -7t43.5 -32l258 -268q27 -27 2 -47l-39 -35q-18 -14 -45 4l-266 186l-266 -192q-25 -14 -43 4l-43 45q-14 14 -2 31z" />
<glyph unicode="&#x178;" horiz-adv-x="1183" d="M24 1427.5q3 8.5 17 8.5h174q16 0 25.5 -5.5t19.5 -23.5l174 -332l162 -321h8l170 336l166 317q16 29 45 29h162q12 0 15 -8.5t-1 -16.5l-461 -844v-534q0 -23 -7 -28t-27 -5h-136q-18 0 -27 5t-9 28v534l-469 844q-4 8 -1 16.5zM287 1686q0 23 10 44t27.5 38.5t39 27.5 t46.5 10q47 0 84.5 -36.5t37.5 -83.5t-37.5 -84t-84.5 -37q-25 0 -46.5 10t-39 26.5t-27.5 39t-10 45.5zM664 1686q0 23 10 44t27.5 38.5t39 27.5t45.5 10q47 0 85 -36.5t38 -83.5t-36.5 -84t-84.5 -37q-49 0 -86.5 36.5t-37.5 84.5z" />
<glyph unicode="&#x179;" horiz-adv-x="1263" d="M61 100v33q0 41 11.5 67.5t38.5 55.5l833 991l-4 6h-739q-23 0 -28 8.5t-5 26.5v111q0 18 5 27.5t28 9.5h848q59 0 88.5 -23.5t29.5 -83.5v-43q0 -41 -15 -71.5t-42 -61.5l-803 -958l4 -13h842q23 0 28 -8t5 -29v-108q0 -20 -5 -28.5t-28 -8.5h-979q-113 0 -113 100z M503 1615.5q1 8.5 17 20.5l295 217q10 8 20.5 10.5t24.5 -14.5l94 -131q12 -12 9.5 -21t-13.5 -14l-348 -155q-20 -8 -30.5 -5t-20.5 13l-39 59q-10 12 -9 20.5z" />
<glyph unicode="&#x17a;" horiz-adv-x="956" d="M41 78v33q0 29 8 59.5t35 58.5l602 676l-2 6h-559q-23 0 -29 8.5t-6 24.5v98q0 14 6 23.5t29 9.5h694q53 0 74.5 -18.5t21.5 -65.5v-37q0 -25 -8 -52.5t-28 -49.5l-609 -684l2 -4h607q23 0 28.5 -9.5t5.5 -23.5v-98q0 -16 -6 -24.5t-28 -8.5h-750q-51 0 -69.5 22.5 t-18.5 55.5zM406.5 1223.5q-3.5 7.5 7.5 27.5l135 324q4 10 13 17t30 3l158 -43q16 -4 19 -13t-5 -19l-225 -314q-12 -16 -21.5 -19t-25.5 1l-66 24q-16 4 -19.5 11.5z" />
<glyph unicode="&#x17b;" horiz-adv-x="1263" d="M61 100v33q0 41 11.5 67.5t38.5 55.5l833 991l-4 6h-739q-23 0 -28 8.5t-5 26.5v111q0 18 5 27.5t28 9.5h848q59 0 88.5 -23.5t29.5 -83.5v-43q0 -41 -15 -71.5t-42 -61.5l-803 -958l4 -13h842q23 0 28 -8t5 -29v-108q0 -20 -5 -28.5t-28 -8.5h-979q-113 0 -113 100z M541 1659q0 51 37.5 89t91.5 38q51 0 90 -38t39 -89t-39 -89t-90 -38q-53 0 -91 38t-38 89z" />
<glyph unicode="&#x17c;" horiz-adv-x="956" d="M41 78v33q0 29 8 59.5t35 58.5l602 676l-2 6h-559q-23 0 -29 8.5t-6 24.5v98q0 14 6 23.5t29 9.5h694q53 0 74.5 -18.5t21.5 -65.5v-37q0 -25 -8 -52.5t-28 -49.5l-609 -684l2 -4h607q23 0 28.5 -9.5t5.5 -23.5v-98q0 -16 -6 -24.5t-28 -8.5h-750q-51 0 -69.5 22.5 t-18.5 55.5zM381 1368q0 51 38 89t91 38q51 0 90 -38t39 -89t-39 -89t-90 -38q-53 0 -91 38t-38 89z" />
<glyph unicode="&#x17d;" horiz-adv-x="1263" d="M61 100v33q0 41 11.5 67.5t38.5 55.5l833 991l-4 6h-739q-23 0 -28 8.5t-5 26.5v111q0 18 5 27.5t28 9.5h848q59 0 88.5 -23.5t29.5 -83.5v-43q0 -41 -15 -71.5t-42 -61.5l-803 -958l4 -13h842q23 0 28 -8t5 -29v-108q0 -20 -5 -28.5t-28 -8.5h-979q-113 0 -113 100z M328 1761q-12 14 2 31l32 47q18 18 44 6l276 -131l266 129q16 8 25.5 10t19.5 -6l39 -43q12 -10 13.5 -21t-15.5 -26l-258 -203q-29 -23 -52.5 -28.5t-37.5 -5.5q-16 0 -37.5 8t-46.5 26z" />
<glyph unicode="&#x17e;" horiz-adv-x="956" d="M41 78v33q0 29 8 59.5t35 58.5l602 676l-2 6h-559q-23 0 -29 8.5t-6 24.5v98q0 14 6 23.5t29 9.5h694q53 0 74.5 -18.5t21.5 -65.5v-37q0 -25 -8 -52.5t-28 -49.5l-609 -684l2 -4h607q23 0 28.5 -9.5t5.5 -23.5v-98q0 -16 -6 -24.5t-28 -8.5h-750q-51 0 -69.5 22.5 t-18.5 55.5zM145 1495q-14 18 2 31l46 41q18 18 43 4l264 -189l266 187q27 18 45 4l39 -35q12 -10 13 -20.5t-15 -26.5l-258 -268q-25 -25 -44.5 -32t-45.5 -7q-23 0 -42.5 8t-41.5 31z" />
<glyph unicode="&#x192;" d="M93.5 -145.5q0.5 8.5 4.5 22.5l29 103q8 25 35 18q41 -8 65.5 -10t51.5 -2q78 0 111.5 63.5t53.5 159.5q12 59 23.5 129t23 139.5t20.5 135t17 116.5h-168q-23 0 -25.5 9.5t-0.5 23.5v76q0 39 39 39h178q4 20 8 60t12 77q10 63 32 133t62 127t105.5 95t165.5 38 q31 0 87 -3t116 -22q16 -4 16 -14t-2 -22l-16 -107q-2 -12 -13.5 -17t-25.5 -1q-41 8 -73 11t-60 3q-96 0 -139.5 -50t-63.5 -161q-10 -47 -13.5 -79t-9.5 -66h224q20 0 25 -8.5t5 -24.5l-2 -84q-2 -14 -9 -23.5t-30 -9.5h-233q-10 -57 -19.5 -124.5t-20.5 -138.5 t-21.5 -138.5t-22.5 -122.5q-20 -90 -42 -163t-59.5 -124t-98 -77.5t-156.5 -26.5q-39 0 -87.5 6t-82.5 20q-16 6 -15.5 14.5z" />
<glyph unicode="&#x1a0;" horiz-adv-x="1552" d="M113 715q0 178 47 316t130 232.5t195.5 143.5t243.5 49q150 0 264.5 -49t192.5 -143q41 2 70.5 14t50 38.5t30 68.5t9.5 106v80q0 25 11 31t27 6h93q18 0 26 -7.5t8 -29.5v-86q0 -145 -55 -239.5t-184 -123.5q74 -166 74 -399q0 -360 -158 -553t-465 -193 q-301 0 -455.5 185.5t-154.5 552.5zM326 723q0 -125 19.5 -227.5t65.5 -175t122.5 -112.5t191.5 -40q117 0 194.5 46t125 122t66.5 174.5t19 204.5t-16 206.5t-59 176.5t-120 122t-200 46q-104 0 -181 -43t-127 -117t-75.5 -173t-25.5 -210z" />
<glyph unicode="&#x1a1;" horiz-adv-x="1296" d="M92 537q0 135 37 239.5t102.5 176t154.5 108.5t192 37q135 0 233 -49.5t158 -141.5q82 6 119.5 54.5t37.5 173.5v79q0 25 11.5 31t27.5 6h92q18 0 26.5 -7t8.5 -30v-86q0 -152 -60.5 -248t-199.5 -120q29 -98 29 -217q0 -274 -124 -420t-366 -146q-236 0 -357.5 140.5 t-121.5 419.5zM293 543q0 -90 13 -163t46 -125t87.5 -81t133.5 -29q82 0 136.5 33t87 87t47 125t14.5 147t-11 147.5t-42 125.5t-84 87t-139 33q-74 0 -128.5 -31t-90 -83t-53 -122.5t-17.5 -150.5z" />
<glyph unicode="&#x1af;" horiz-adv-x="1599" d="M154 627v774q0 23 5 28t15 5h168q12 0 19.5 -5.5t7.5 -27.5v-770q0 -119 15 -206t59 -145.5t127 -87t218 -28.5q35 0 100.5 3t149.5 19v1215q0 23 5.5 28t19.5 5h164q10 0 15 -5.5t5 -27.5v-137h13q49 0 82.5 10t53 35.5t29 69.5t9.5 112v80q0 25 11 31t28 6h92 q18 0 26 -7.5t8 -29.5v-86q0 -86 -17 -155.5t-56 -119t-103.5 -75t-158.5 -25.5h-17v-911q0 -82 -35.5 -133.5t-132.5 -67.5q-78 -12 -157.5 -17.5t-145.5 -5.5q-170 0 -288.5 33t-192.5 109t-107.5 200.5t-33.5 309.5z" />
<glyph unicode="&#x1b0;" horiz-adv-x="1357" d="M133 498v546q0 23 8.5 28t28.5 5h127q18 0 27.5 -5t9.5 -28v-540q0 -88 11 -152.5t44 -107.5t91.5 -64.5t152.5 -21.5q23 0 67.5 2t108.5 12v872q0 23 8 28t29 5h127q18 0 27.5 -5t9.5 -28v-137h14q43 0 73.5 10.5t50 36t30 69.5t10.5 112v79q0 25 11 31t28 6h92 q18 0 26.5 -7t8.5 -30v-86q0 -174 -75 -274t-251 -100h-18v-586q0 -147 -144 -172q-57 -10 -128.5 -13t-121.5 -3q-133 0 -224 28.5t-149.5 91t-84 160.5t-25.5 238z" />
<glyph unicode="&#x1fc;" horiz-adv-x="1767" d="M39 29l407 1185q14 41 37 81t63 71t99.5 50.5t147.5 19.5h843q23 0 28 -9.5t5 -27.5v-117q0 -20 -5 -27.5t-28 -7.5h-501q-84 0 -121 -38t-37 -115v-242h598q23 0 28 -8t5 -29v-108q0 -18 -5.5 -27.5t-27.5 -9.5h-598v-326q0 -66 36 -108.5t122 -42.5h516q23 0 27.5 -8.5 t4.5 -28.5v-119q0 -18 -5 -27.5t-27 -9.5h-533q-180 0 -260 85t-90 243h-408l-100 -301q-8 -27 -39 -27h-164q-29 0 -18 29zM410 498h358v579q0 55 6 104.5t23 73.5q-88 0 -124 -24.5t-52 -71.5l-74 -225zM933 1615.5q1 8.5 17 20.5l295 217q10 8 20.5 10.5t24.5 -14.5 l94 -131q12 -12 9.5 -21t-13.5 -14l-348 -155q-20 -8 -30.5 -5t-20.5 13l-39 59q-10 12 -9 20.5z" />
<glyph unicode="&#x1fd;" horiz-adv-x="1789" d="M125 299q0 57 17.5 119.5t63.5 115t127 86t208 33.5h250q27 145 -37 208t-195 63q-74 0 -151.5 -13.5t-124.5 -27.5q-20 -6 -30.5 -4t-14.5 20l-27 100q-8 29 18 39q82 33 182.5 46.5t182.5 13.5q129 0 210 -37t126 -107q63 70 150.5 107t185.5 37q109 0 190.5 -31 t137 -88t84 -136t32.5 -173q2 -53 -12.5 -87t-38 -53.5t-55 -27.5t-64.5 -8h-557q2 -109 26.5 -176.5t67.5 -104.5t98.5 -49t118.5 -12q68 0 134.5 18t107.5 41q31 14 43 -12l49 -97q14 -33 -12 -47q-78 -47 -166 -62.5t-170 -15.5q-96 0 -177 29t-142 72 q-47 -29 -104.5 -47.5t-117 -30.5t-116 -17.5t-103.5 -5.5q-133 0 -212 31t-120 78t-52 103.5t-11 109.5zM328 299q0 -72 45 -117t155 -45q14 0 51 2t82.5 9.5t93.5 20.5t89 36q-31 59 -46.5 126.5t-17.5 162.5h-215q-41 0 -83 -8.5t-75.5 -30t-56 -59.5t-22.5 -97z M859.5 1223.5q-3.5 7.5 6.5 27.5l135 324q4 10 13.5 17t29.5 3l158 -43q16 -4 19.5 -13t-4.5 -19l-226 -314q-12 -16 -21 -19t-26 1l-65 24q-16 4 -19.5 11.5zM991 653h529q0 47 -11.5 96.5t-40 89.5t-79 65.5t-125.5 25.5q-63 0 -112.5 -21.5t-83.5 -59.5t-53.5 -88 t-23.5 -108z" />
<glyph unicode="&#x1fe;" horiz-adv-x="1458" d="M113 715q0 178 47 316t130 232.5t195.5 143.5t243.5 49q121 0 217 -32.5t170 -92.5l96 127q18 25 43 4l41 -28q10 -10 11.5 -16.5t-9.5 -22.5l-106 -140q154 -190 154 -532q0 -360 -158 -553t-465 -193q-250 0 -397 129l-82 -108q-10 -14 -19.5 -13t-19.5 9l-43 26 q-20 14 -2 41l92 123q-139 186 -139 531zM326 723q0 -109 14 -198t49 -160l608 806q-45 45 -109.5 70t-152.5 25q-104 0 -181 -43t-127 -117t-75.5 -173t-25.5 -210zM451 272q47 -51 116.5 -77.5t165.5 -26.5q117 0 192.5 46t122 122t64.5 174.5t18 204.5q0 102 -14 196.5 t-53 169.5zM632 1615.5q1 8.5 17 20.5l295 217q10 8 20.5 10.5t24.5 -14.5l94 -131q12 -12 9.5 -21t-13.5 -14l-348 -155q-20 -8 -30.5 -5t-20.5 13l-39 59q-10 12 -9 20.5z" />
<glyph unicode="&#x1ff;" horiz-adv-x="1153" d="M92 537q0 135 37 239.5t102.5 176t154.5 108.5t192 37q100 0 181 -28t140 -81l76 88q10 10 18 9t19 -7l37 -37q10 -8 10 -14t-10 -18l-84 -97q96 -143 96 -370q0 -274 -124 -420t-366 -146q-207 0 -325 109l-68 -78q-18 -18 -33 -2l-39 35q-20 16 0 35l74 86 q-88 133 -88 375zM293 543q0 -63 6 -117.5t23 -101.5l454 526q-31 37 -79 58.5t-115 21.5q-74 0 -128.5 -31t-90 -83t-53 -122.5t-17.5 -150.5zM371 229q66 -84 202 -84q82 0 136.5 33t87 87t47 125t14.5 147q0 59 -7 115.5t-24 103.5zM513 1223.5q-3 7.5 7 27.5l135 324 q4 10 13.5 17t29.5 3l158 -43q16 -4 19.5 -13t-5.5 -19l-225 -314q-12 -16 -21.5 -19t-25.5 1l-66 24q-16 4 -19 11.5z" />
<glyph unicode="&#x218;" horiz-adv-x="1181" d="M82 125l55 125q12 25 37 14q221 -96 410 -96q172 0 246.5 58.5t74.5 154.5q0 49 -20.5 87t-60.5 69.5t-98 59.5t-136 58q-115 45 -201 88t-144.5 92.5t-88 109t-29.5 136.5q0 170 112.5 273.5t335.5 103.5q51 0 110.5 -5t118 -15.5t114 -25.5t102.5 -36q25 -12 14 -35 l-47 -131q-6 -16 -12 -18t-17 2q-104 37 -205.5 54.5t-185.5 17.5q-117 0 -172 -49.5t-55 -118.5q0 -45 21.5 -79t66.5 -64.5t112.5 -61.5t159.5 -70q78 -33 154 -68.5t135.5 -84.5t96 -117t36.5 -164q0 -106 -40 -184t-108.5 -128t-159.5 -75t-193 -25q-127 0 -266.5 21.5 t-262.5 83.5q-25 10 -10 43zM459 -569l30 391q2 12 9.5 24.5t27.5 12.5h179q23 0 31.5 -12.5t4.5 -24.5l-131 -385q-8 -23 -14 -30t-29 -7h-67q-45 0 -41 31z" />
<glyph unicode="&#x219;" horiz-adv-x="968" d="M74 78.5q-6 11.5 4 30.5l43 96q8 16 17 21t32 -5q82 -37 169 -55.5t159 -18.5q96 0 146 38t50 104q0 70 -63.5 109.5t-177.5 80.5q-84 31 -146.5 60.5t-103.5 66.5t-61.5 83t-20.5 108q0 135 96 218t277 83q84 0 162.5 -13.5t160.5 -46.5q14 -6 18.5 -18t0.5 -25 l-43 -108q-6 -14 -15.5 -14.5t-19.5 4.5q-84 31 -142.5 41t-128.5 10q-88 0 -129 -36t-41 -83q0 -31 12.5 -54.5t40 -44t71.5 -40t108 -43.5q61 -23 121.5 -49.5t108.5 -64.5t78 -90t30 -126q0 -82 -31 -141.5t-84 -99.5t-123.5 -59.5t-150.5 -19.5q-98 0 -209 18.5 t-197 65.5q-12 6 -18 17.5zM346 -569l31 391q2 12 9 24.5t28 12.5h178q23 0 32 -12.5t5 -24.5l-131 -385q-8 -23 -14.5 -30t-28.5 -7h-68q-45 0 -41 31z" />
<glyph unicode="&#x2c6;" horiz-adv-x="1173" d="M231 1257l271 273q23 23 42 31t42 8q27 0 46 -7.5t44 -31.5l258 -268q27 -27 2 -48l-39 -34q-18 -14 -45 4l-266 186l-267 -192q-25 -14 -43 4l-43 45q-14 14 -2 30z" />
<glyph unicode="&#x2da;" horiz-adv-x="1097" d="M381 1384q0 86 60.5 142.5t148.5 56.5t148.5 -56.5t60.5 -142.5t-60.5 -142t-148.5 -56t-148.5 55t-60.5 143zM483 1384q0 -47 30 -76.5t77 -29.5t76.5 29.5t29.5 76.5t-29.5 77t-76.5 30t-77 -29.5t-30 -77.5z" />
<glyph unicode="&#x2dc;" horiz-adv-x="1167" d="M233.5 1317q-6.5 6 2.5 22q35 61 88 106.5t133 45.5q37 0 69.5 -12.5t64.5 -27.5t61.5 -27.5t58.5 -12.5q31 0 54 16.5t34 40.5q8 16 15 18.5t24 -1.5l80 -23q35 -6 24 -30q-35 -76 -84 -120t-133 -44q-37 0 -70.5 11t-67.5 24.5t-67 25.5t-67 12q-27 0 -48.5 -16 t-33.5 -39q-6 -10 -15.5 -15t-27.5 3l-70 31q-18 6 -24.5 12z" />
<glyph unicode="&#x1e80;" horiz-adv-x="1712" d="M33 1407q-8 29 18 29h166q33 0 39 -27l150 -829l57 -330h12l66 325l157 758q8 41 33 72t88 31h88q53 0 78 -29t35 -74l151 -747l66 -336h12l62 338l151 821q6 27 39 27h160q25 0 18 -29l-276 -1323q-10 -53 -40 -68.5t-77 -15.5h-100q-45 0 -66.5 26.5t-32.5 73.5 l-161 770l-64 326h-8l-66 -328l-163 -768q-10 -47 -32 -73.5t-67 -26.5h-100q-47 0 -77 15.5t-40 68.5zM519 1696.5q-3 9.5 9 21.5l95 131q14 16 24 14.5t21 -10.5l295 -217q16 -12 17 -20t-9 -21l-39 -59q-10 -10 -20.5 -13t-30.5 5l-349 155q-10 4 -13 13.5z" />
<glyph unicode="&#x1e81;" horiz-adv-x="1538" d="M43 1057q-6 23 18 22h156q16 0 21.5 -5t9.5 -15l102 -553l56 -297h12l78 268l131 475q10 33 31.5 59.5t80.5 26.5h70q49 0 67.5 -25.5t30.5 -66.5l123 -436l90 -320h13l55 316l102 553q4 10 9.5 15t21.5 5h156q25 0 18 -22l-213 -969q-14 -63 -45 -80.5t-70 -17.5h-82 q-53 0 -73.5 18.5t-36.5 71.5l-111 377l-92 348h-8l-94 -361l-111 -364q-12 -43 -34.5 -66.5t-75.5 -23.5h-89q-39 0 -65.5 17.5t-40.5 80.5zM480 1539q3 9 20 13l157 43q20 4 29.5 -3t13.5 -17l136 -324q10 -20 7 -27t-20 -12l-65 -24q-16 -4 -25.5 -1t-21.5 19l-226 314 q-8 10 -5 19z" />
<glyph unicode="&#x1e82;" horiz-adv-x="1712" d="M33 1407q-8 29 18 29h166q33 0 39 -27l150 -829l57 -330h12l66 325l157 758q8 41 33 72t88 31h88q53 0 78 -29t35 -74l151 -747l66 -336h12l62 338l151 821q6 27 39 27h160q25 0 18 -29l-276 -1323q-10 -53 -40 -68.5t-77 -15.5h-100q-45 0 -66.5 26.5t-32.5 73.5 l-161 770l-64 326h-8l-66 -328l-163 -768q-10 -47 -32 -73.5t-67 -26.5h-100q-47 0 -77 15.5t-40 68.5zM751 1615.5q1 8.5 17 20.5l295 217q10 8 20.5 10.5t24.5 -14.5l94 -131q12 -12 9 -21t-13 -14l-348 -155q-20 -8 -30.5 -5t-20.5 13l-39 59q-10 12 -9 20.5z" />
<glyph unicode="&#x1e83;" horiz-adv-x="1538" d="M43 1057q-6 23 18 22h156q16 0 21.5 -5t9.5 -15l102 -553l56 -297h12l78 268l131 475q10 33 31.5 59.5t80.5 26.5h70q49 0 67.5 -25.5t30.5 -66.5l123 -436l90 -320h13l55 316l102 553q4 10 9.5 15t21.5 5h156q25 0 18 -22l-213 -969q-14 -63 -45 -80.5t-70 -17.5h-82 q-53 0 -73.5 18.5t-36.5 71.5l-111 377l-92 348h-8l-94 -361l-111 -364q-12 -43 -34.5 -66.5t-75.5 -23.5h-89q-39 0 -65.5 17.5t-40.5 80.5zM675 1223.5q-3 7.5 7 27.5l135 324q4 10 13.5 17t29.5 3l158 -43q16 -4 19 -13t-5 -19l-225 -314q-12 -16 -21.5 -19t-25.5 1 l-66 24q-16 4 -19 11.5z" />
<glyph unicode="&#x1e84;" horiz-adv-x="1712" d="M33 1407q-8 29 18 29h166q33 0 39 -27l150 -829l57 -330h12l66 325l157 758q8 41 33 72t88 31h88q53 0 78 -29t35 -74l151 -747l66 -336h12l62 338l151 821q6 27 39 27h160q25 0 18 -29l-276 -1323q-10 -53 -40 -68.5t-77 -15.5h-100q-45 0 -66.5 26.5t-32.5 73.5 l-161 770l-64 326h-8l-66 -328l-163 -768q-10 -47 -32 -73.5t-67 -26.5h-100q-47 0 -77 15.5t-40 68.5zM545 1679q0 23 10 44.5t27.5 39t39 27.5t46.5 10q47 0 85 -37t38 -84t-38 -83.5t-85 -36.5q-25 0 -46.5 10t-39 26.5t-27.5 39t-10 44.5zM922 1679q0 23 10 44.5 t27.5 39t39 27.5t45.5 10q47 0 85 -37t38 -84t-36.5 -83.5t-83.5 -36.5q-49 0 -87 36.5t-38 83.5z" />
<glyph unicode="&#x1e85;" horiz-adv-x="1538" d="M43 1057q-6 23 18 22h156q16 0 21.5 -5t9.5 -15l102 -553l56 -297h12l78 268l131 475q10 33 31.5 59.5t80.5 26.5h70q49 0 67.5 -25.5t30.5 -66.5l123 -436l90 -320h13l55 316l102 553q4 10 9.5 15t21.5 5h156q25 0 18 -22l-213 -969q-14 -63 -45 -80.5t-70 -17.5h-82 q-53 0 -73.5 18.5t-36.5 71.5l-111 377l-92 348h-8l-94 -361l-111 -364q-12 -43 -34.5 -66.5t-75.5 -23.5h-89q-39 0 -65.5 17.5t-40.5 80.5zM449 1372q0 23 10 44.5t27.5 39t39 27.5t45.5 10q47 0 85 -37t38 -84t-38 -84t-85 -37q-25 0 -46 10.5t-38.5 27t-27.5 39 t-10 44.5zM825 1372q0 23 10.5 44.5t28 39t39 27.5t45.5 10q47 0 85 -37t38 -84t-37 -84t-84 -37q-49 0 -87 37t-38 84z" />
<glyph unicode="&#x1ef2;" horiz-adv-x="1183" d="M24 1427.5q3 8.5 17 8.5h174q16 0 25.5 -5.5t19.5 -23.5l174 -332l162 -321h8l170 336l166 317q16 29 45 29h162q12 0 15 -8.5t-1 -16.5l-461 -844v-534q0 -23 -7 -28t-27 -5h-136q-18 0 -27 5t-9 28v534l-469 844q-4 8 -1 16.5zM300 1696.5q-3 9.5 9 21.5l94 131 q14 16 24.5 14.5t21.5 -10.5l294 -217q16 -12 17.5 -20t-8.5 -21l-39 -59q-10 -10 -20.5 -13t-30.5 5l-349 155q-10 4 -13 13.5z" />
<glyph unicode="&#x1ef3;" horiz-adv-x="1021" d="M23 1053q-6 23 18 22h158q16 0 21 -5t9 -15l156 -506l111 -379h12l123 381l168 504q4 10 9 15t21 5h152q25 0 18 -22l-405 -1225q-47 -141 -126 -198.5t-200 -57.5q-27 0 -71.5 4t-96.5 18q-33 8 -24 35l24 103q4 18 12.5 21t24.5 -1q35 -8 53.5 -11t47.5 -3 q74 0 116.5 28.5t67.5 104.5l47 141h-43q-33 0 -57.5 11.5t-42.5 70.5zM245 1539q3 9 19 13l158 43q20 4 29.5 -3t13.5 -17l135 -324q10 -20 7 -27t-19 -12l-66 -24q-16 -4 -25.5 -1t-21.5 19l-225 314q-8 10 -5 19z" />
<glyph unicode="&#x2000;" horiz-adv-x="943" />
<glyph unicode="&#x2001;" horiz-adv-x="1886" />
<glyph unicode="&#x2002;" horiz-adv-x="943" />
<glyph unicode="&#x2003;" horiz-adv-x="1886" />
<glyph unicode="&#x2004;" horiz-adv-x="628" />
<glyph unicode="&#x2005;" horiz-adv-x="471" />
<glyph unicode="&#x2006;" horiz-adv-x="314" />
<glyph unicode="&#x2007;" horiz-adv-x="314" />
<glyph unicode="&#x2008;" horiz-adv-x="235" />
<glyph unicode="&#x2009;" horiz-adv-x="377" />
<glyph unicode="&#x200a;" horiz-adv-x="104" />
<glyph unicode="&#x2010;" horiz-adv-x="747" d="M102 512v156q0 18 5.5 27.5t27.5 9.5h477q23 0 28 -9.5t5 -27.5v-156q0 -20 -5 -28.5t-28 -8.5h-477q-23 0 -28 8.5t-5 28.5z" />
<glyph unicode="&#x2011;" horiz-adv-x="747" d="M102 512v156q0 18 5.5 27.5t27.5 9.5h477q23 0 28 -9.5t5 -27.5v-156q0 -20 -5 -28.5t-28 -8.5h-477q-23 0 -28 8.5t-5 28.5z" />
<glyph unicode="&#x2012;" horiz-adv-x="747" d="M102 512v156q0 18 5.5 27.5t27.5 9.5h477q23 0 28 -9.5t5 -27.5v-156q0 -20 -5 -28.5t-28 -8.5h-477q-23 0 -28 8.5t-5 28.5z" />
<glyph unicode="&#x2013;" horiz-adv-x="1024" d="M47 561v109q0 18 5 27.5t28 9.5h862q23 0 28 -9.5t5 -27.5v-109q0 -20 -5 -28.5t-28 -8.5h-862q-23 0 -28 8.5t-5 28.5z" />
<glyph unicode="&#x2014;" horiz-adv-x="2048" d="M41 561v109q0 18 5 27.5t28 9.5h1900q23 0 28 -9.5t5 -27.5v-109q0 -20 -5 -28.5t-28 -8.5h-1900q-23 0 -28 8.5t-5 28.5z" />
<glyph unicode="&#x2015;" horiz-adv-x="2048" d="M41 561v109q0 18 5 27.5t28 9.5h1900q23 0 28 -9.5t5 -27.5v-109q0 -20 -5 -28.5t-28 -8.5h-1900q-23 0 -28 8.5t-5 28.5z" />
<glyph unicode="&#x2018;" horiz-adv-x="618" d="M115 954l149 490q6 23 13.5 30t29.5 7h70q41 0 41 -31l-33 -496q0 -12 -7 -24t-28 -12h-198q-23 0 -32 12t-5 24z" />
<glyph unicode="&#x2019;" horiz-adv-x="618" d="M164 948l31 496q2 12 8 24.5t26 12.5h199q23 0 33 -12.5t6 -24.5l-152 -490q-6 -23 -13 -29.5t-30 -6.5h-69q-43 0 -39 30z" />
<glyph unicode="&#x201a;" horiz-adv-x="514" d="M121 -227l31 495q2 12 9 24.5t27 12.5h199q23 0 32 -12t5 -25l-150 -489q-8 -23 -14 -30t-29 -7h-69q-45 0 -41 31z" />
<glyph unicode="&#x201c;" horiz-adv-x="919" d="M115 954l149 490q6 23 13.5 30t29.5 7h70q41 0 41 -31l-33 -496q0 -12 -7 -24t-28 -12h-198q-23 0 -32 12t-5 24zM498 954l151 490q6 23 13.5 30t29.5 7h70q41 0 39 -31l-31 -496q-2 -12 -8 -24t-27 -12h-198q-23 0 -33 12t-6 24z" />
<glyph unicode="&#x201d;" horiz-adv-x="919" d="M115 948l30 496q2 12 8.5 24.5t26.5 12.5h199q23 0 33 -12.5t6 -24.5l-152 -490q-6 -23 -13 -29.5t-30 -6.5h-69q-43 0 -39 30zM498 948l32 496q0 12 7.5 24.5t27.5 12.5h199q23 0 32 -12.5t5 -24.5l-150 -490q-6 -23 -13 -29.5t-30 -6.5h-69q-41 0 -41 30z" />
<glyph unicode="&#x201e;" horiz-adv-x="866" d="M121 -227l31 495q2 12 9 24.5t27 12.5h199q23 0 32 -12t5 -25l-150 -489q-8 -23 -14 -30t-29 -7h-69q-45 0 -41 31zM469 -227l31 495q2 12 9 24.5t28 12.5h198q23 0 32 -12t5 -25l-149 -489q-8 -23 -14.5 -30t-28.5 -7h-70q-45 0 -41 31z" />
<glyph unicode="&#x2020;" horiz-adv-x="1157" d="M111 842v108q0 18 5 27.5t27 9.5h344v418q0 23 9.5 28t27.5 5h138q18 0 25 -5.5t7 -27.5v-418h348q23 0 28 -9t5 -28v-108q0 -18 -5 -26.5t-28 -8.5h-348v-993q0 -23 -7 -28t-25 -5h-138q-18 0 -27.5 5t-9.5 28v993h-344q-23 0 -27.5 8t-4.5 27z" />
<glyph unicode="&#x2021;" horiz-adv-x="1157" d="M111 444v109q0 18 5 27.5t27 9.5h344v258h-344q-23 0 -27.5 8t-4.5 27v108q0 18 5 27.5t27 9.5h344v377q0 23 9.5 28t27.5 5h138q18 0 25 -5.5t7 -27.5v-377h348q23 0 28 -9t5 -28v-108q0 -18 -5 -26.5t-28 -8.5h-348v-258h348q23 0 28 -9.5t5 -27.5v-109q0 -18 -5 -26 t-28 -8h-348v-596q0 -23 -7 -28t-25 -5h-138q-18 0 -27.5 5t-9.5 28v596h-344q-23 0 -27.5 8t-4.5 26z" />
<glyph unicode="&#x2022;" horiz-adv-x="860" d="M164 612q0 57 20.5 106.5t57.5 86.5t86 58.5t106 21.5t106.5 -21.5t86.5 -58.5t57.5 -86.5t20.5 -106.5t-20.5 -106t-57.5 -86t-86 -57.5t-107 -20.5q-57 0 -106 20.5t-86 57.5t-57.5 86t-20.5 106z" />
<glyph unicode="&#x2023;" horiz-adv-x="931" d="M150 143v758l724 -369z" />
<glyph unicode="&#x2026;" horiz-adv-x="1589" d="M113 137q0 70 47 117t114 47q72 0 118 -46t46 -118q0 -68 -46 -115t-118 -47q-68 0 -114.5 46.5t-46.5 115.5zM633 137q0 70 47 117t115 47q72 0 117.5 -46t45.5 -118q0 -68 -47 -115t-116 -47q-68 0 -115 46.5t-47 115.5zM1151 137q0 70 47 117t117 47t116 -46t46 -118 q0 -68 -46.5 -115t-115.5 -47q-70 0 -117 46.5t-47 115.5z" />
<glyph unicode="&#x202f;" horiz-adv-x="377" />
<glyph unicode="&#x2030;" horiz-adv-x="2660" d="M76 961q0 96 22.5 174.5t67.5 135t113.5 87.5t162.5 31q98 0 167 -31t113 -86t63.5 -134t19.5 -175t-21.5 -174t-66.5 -135.5t-115 -88t-164 -30.5q-186 0 -274 115.5t-88 310.5zM246 963q0 -55 9 -107.5t30.5 -93.5t59.5 -66.5t97 -25.5q55 0 93 25.5t60.5 66.5t32 93.5 t9.5 105.5q0 55 -9.5 107t-33 93t-61 65.5t-95.5 24.5q-55 0 -93 -24.5t-59.5 -65.5t-30.5 -93t-9 -105zM427.5 -38q-7.5 7 2.5 26l838 1401q10 18 18 25t27 7h80q10 0 18 -7t-2 -25l-838 -1401q-10 -18 -20 -25.5t-29 -7.5h-71q-16 0 -23.5 7zM1036 414q0 96 22.5 175 t67.5 135t114 87t163 31q98 0 166.5 -31t112.5 -86t63.5 -134t19.5 -175t-21.5 -174t-66.5 -135.5t-114.5 -88t-163.5 -30.5q-186 0 -274.5 115.5t-88.5 310.5zM1206 416q0 -55 9.5 -107.5t31 -93.5t59 -66.5t97.5 -25.5q55 0 93 25.5t60.5 66.5t31.5 93.5t9 105.5 q0 55 -9 107t-32.5 93t-61.5 66t-95 25q-55 0 -93 -25t-59.5 -66t-31 -93t-9.5 -105zM1851 414q0 96 22.5 175t68 135t114 87t162.5 31q98 0 167 -31t113 -86t63 -134t19 -175t-21.5 -174t-66.5 -135.5t-114.5 -88t-163.5 -30.5q-186 0 -274.5 115.5t-88.5 310.5zM2021 416 q0 -55 9.5 -107.5t31 -93.5t59.5 -66.5t97 -25.5q55 0 93 25.5t60.5 66.5t32 93.5t9.5 105.5q0 55 -9.5 107t-33 93t-61.5 66t-95 25q-55 0 -93 -25t-59.5 -66t-31 -93t-9.5 -105z" />
<glyph unicode="&#x2039;" horiz-adv-x="661" d="M123 500q0 29 12 52t23 40l190 313q12 20 26.5 31.5t49.5 11.5h115q23 0 29.5 -14t-3.5 -31l-241 -407l247 -394q12 -23 4 -34t-30 -11h-119q-35 0 -50.5 11.5t-25.5 31.5l-196 316q-10 16 -20.5 40.5t-10.5 43.5z" />
<glyph unicode="&#x203a;" horiz-adv-x="661" d="M86 68.5q-8 11.5 4 33.5l248 394l-242 407q-10 16 -3 30.5t30 14.5h115q35 0 49 -11t26 -32l191 -313q10 -16 22.5 -40t12.5 -52q0 -18 -10.5 -43t-20.5 -41l-197 -316q-10 -20 -25.5 -31.5t-49.5 -11.5h-119q-23 0 -31 11.5z" />
<glyph unicode="&#x2044;" horiz-adv-x="411" d="M-302 -38q-7 7 3 26l838 1401q10 18 18 25t27 7h80q10 0 18 -7t-2 -25l-838 -1401q-10 -18 -20 -25.5t-29 -7.5h-72q-16 0 -23 7z" />
<glyph unicode="&#x205f;" horiz-adv-x="471" />
<glyph unicode="&#x20ac;" d="M72 539v61q0 18 5 27.5t27 9.5h838q23 0 28 -9.5t5 -27.5v-61q0 -20 -5 -28.5t-28 -8.5h-541q16 -164 109.5 -251t280.5 -87q72 0 148.5 21.5t139.5 47.5q25 10 34 2t13 -18l41 -94q12 -27 7 -36t-17 -19q-90 -55 -198.5 -73t-202.5 -18q-117 0 -213.5 31t-168 94.5 t-116.5 163t-59 236.5h-95q-23 0 -27.5 8t-4.5 29zM72 786v62q0 18 5 27.5t27 9.5h103q16 119 66.5 214t124 161.5t169 102.5t203.5 36q78 0 166 -15.5t182 -66.5q12 -4 16.5 -15.5t-6.5 -33.5l-45 -103q-8 -14 -15 -18t-24 2q-57 27 -125.5 42t-140.5 15q-76 0 -136 -23.5 t-106.5 -66.5t-76 -102.5t-43.5 -128.5h526q23 0 28 -9.5t5 -27.5v-62q0 -20 -5 -28t-28 -8h-838q-23 0 -27.5 8t-4.5 28z" />
<glyph unicode="&#x2122;" horiz-adv-x="1667" d="M61 1343v66q0 12 4.5 19.5t20.5 7.5h578q16 0 20 -7.5t4 -19.5v-66q0 -14 -4 -20t-20 -6h-226v-664q0 -16 -6 -20t-20 -4h-82q-14 0 -21.5 4t-7.5 20v664h-215q-16 0 -20.5 6t-4.5 20zM764 651v719q0 29 12 47.5t49 18.5h47q35 0 54.5 -12.5t34.5 -47.5l133 -352l55 -143 l8 2l55 147l134 346q12 35 32.5 47.5t53.5 12.5h51q35 0 48 -18.5t13 -47.5v-719q0 -16 -7 -19t-19 -3h-82q-14 0 -19.5 3t-5.5 19v559h-6l-43 -125l-119 -303q-12 -31 -24.5 -42t-42.5 -11h-46q-31 0 -43 11.5t-24 41.5l-113 287l-51 148h-4v-566q0 -16 -6 -19t-21 -3h-80 q-14 0 -19 3t-5 19z" />
<glyph unicode="&#x25fc;" horiz-adv-x="1075" d="M0 0v1075h1075v-1075h-1075z" />
</font>
</defs>
</svg>
